  0
SECTION
  2
HEADER
  9
$ACADVER
  1
AC1015
  9
$ACADMAINTVER
 70
     6
  9
$DWGCODEPAGE
  3
ANSI_1252
  9
$INSBASE
 10
0.0
 20
0.0
 30
0.0
  9
$EXTMIN
 10
27.2898482254718
 20
25.4408300431894
 30
0.0
  9
$EXTMAX
 10
367.2898482254718
 20
270.9408300431894
 30
0.0
  9
$LIMMIN
 10
0.0
 20
0.0
  9
$LIMMAX
 10
12.0
 20
9.0
  9
$ORTHOMODE
 70
     0
  9
$REGENMODE
 70
     1
  9
$FILLMODE
 70
     1
  9
$QTEXTMODE
 70
     0
  9
$MIRRTEXT
 70
     1
  9
$LTSCALE
 40
1.0
  9
$ATTMODE
 70
     1
  9
$TEXTSIZE
 40
0.2
  9
$TRACEWID
 40
0.05
  9
$TEXTSTYLE
  7
Standard
  9
$CLAYER
  8
0
  9
$CELTYPE
  6
ByLayer
  9
$CECOLOR
 62
   256
  9
$CELTSCALE
 40
1.0
  9
$DISPSILH
 70
     0
  9
$DIMSCALE
 40
1.0
  9
$DIMASZ
 40
0.18
  9
$DIMEXO
 40
0.0625
  9
$DIMDLI
 40
0.38
  9
$DIMRND
 40
0.0
  9
$DIMDLE
 40
0.0
  9
$DIMEXE
 40
0.18
  9
$DIMTP
 40
0.0
  9
$DIMTM
 40
0.0
  9
$DIMTXT
 40
0.18
  9
$DIMCEN
 40
0.09
  9
$DIMTSZ
 40
0.0
  9
$DIMTOL
 70
     0
  9
$DIMLIM
 70
     0
  9
$DIMTIH
 70
     1
  9
$DIMTOH
 70
     1
  9
$DIMSE1
 70
     0
  9
$DIMSE2
 70
     0
  9
$DIMTAD
 70
     0
  9
$DIMZIN
 70
     0
  9
$DIMBLK
  1

  9
$DIMASO
 70
     1
  9
$DIMSHO
 70
     1
  9
$DIMPOST
  1

  9
$DIMAPOST
  1

  9
$DIMALT
 70
     0
  9
$DIMALTD
 70
     2
  9
$DIMALTF
 40
25.4
  9
$DIMLFAC
 40
1.0
  9
$DIMTOFL
 70
     0
  9
$DIMTVP
 40
0.0
  9
$DIMTIX
 70
     0
  9
$DIMSOXD
 70
     0
  9
$DIMSAH
 70
     0
  9
$DIMBLK1
  1

  9
$DIMBLK2
  1

  9
$DIMSTYLE
  2
Standard
  9
$DIMCLRD
 70
     0
  9
$DIMCLRE
 70
     0
  9
$DIMCLRT
 70
     0
  9
$DIMTFAC
 40
1.0
  9
$DIMGAP
 40
0.09
  9
$DIMJUST
 70
     0
  9
$DIMSD1
 70
     0
  9
$DIMSD2
 70
     0
  9
$DIMTOLJ
 70
     1
  9
$DIMTZIN
 70
     0
  9
$DIMALTZ
 70
     0
  9
$DIMALTTZ
 70
     0
  9
$DIMUPT
 70
     0
  9
$DIMDEC
 70
     4
  9
$DIMTDEC
 70
     4
  9
$DIMALTU
 70
     2
  9
$DIMALTTD
 70
     2
  9
$DIMTXSTY
  7
Standard
  9
$DIMAUNIT
 70
     0
  9
$DIMADEC
 70
     0
  9
$DIMALTRND
 40
0.0
  9
$DIMAZIN
 70
     0
  9
$DIMDSEP
 70
    46
  9
$DIMATFIT
 70
     3
  9
$DIMFRAC
 70
     0
  9
$DIMLDRBLK
  1

  9
$DIMLUNIT
 70
     2
  9
$DIMLWD
 70
    -2
  9
$DIMLWE
 70
    -2
  9
$DIMTMOVE
 70
     0
  9
$LUNITS
 70
     2
  9
$LUPREC
 70
     4
  9
$SKETCHINC
 40
0.1
  9
$FILLETRAD
 40
0.5
  9
$AUNITS
 70
     0
  9
$AUPREC
 70
     0
  9
$MENU
  1
.
  9
$ELEVATION
 40
0.0
  9
$PELEVATION
 40
0.0
  9
$THICKNESS
 40
0.0
  9
$LIMCHECK
 70
     0
  9
$CHAMFERA
 40
0.5
  9
$CHAMFERB
 40
0.5
  9
$CHAMFERC
 40
1.0
  9
$CHAMFERD
 40
0.0
  9
$SKPOLY
 70
     0
  9
$TDCREATE
 40
2454879.44783125
  9
$TDUCREATE
 40
2454879.406164583
  9
$TDUPDATE
 40
2454879.447831261
  9
$TDUUPDATE
 40
2454879.406164595
  9
$TDINDWG
 40
0.0000000116
  9
$TDUSRTIMER
 40
0.0000000116
  9
$USRTIMER
 70
     1
  9
$ANGBASE
 50
0.0
  9
$ANGDIR
 70
     0
  9
$PDMODE
 70
     0
  9
$PDSIZE
 40
0.0
  9
$PLINEWID
 40
0.0
  9
$SPLFRAME
 70
     0
  9
$SPLINETYPE
 70
     6
  9
$SPLINESEGS
 70
     8
  9
$HANDSEED
  5
149
  9
$SURFTAB1
 70
     6
  9
$SURFTAB2
 70
     6
  9
$SURFTYPE
 70
     6
  9
$SURFU
 70
     6
  9
$SURFV
 70
     6
  9
$UCSBASE
  2

  9
$UCSNAME
  2

  9
$UCSORG
 10
0.0
 20
0.0
 30
0.0
  9
$UCSXDIR
 10
1.0
 20
0.0
 30
0.0
  9
$UCSYDIR
 10
0.0
 20
1.0
 30
0.0
  9
$UCSORTHOREF
  2

  9
$UCSORTHOVIEW
 70
     0
  9
$UCSORGTOP
 10
0.0
 20
0.0
 30
0.0
  9
$UCSORGBOTTOM
 10
0.0
 20
0.0
 30
0.0
  9
$UCSORGLEFT
 10
0.0
 20
0.0
 30
0.0
  9
$UCSORGRIGHT
 10
0.0
 20
0.0
 30
0.0
  9
$UCSORGFRONT
 10
0.0
 20
0.0
 30
0.0
  9
$UCSORGBACK
 10
0.0
 20
0.0
 30
0.0
  9
$PUCSBASE
  2

  9
$PUCSNAME
  2

  9
$PUCSORG
 10
0.0
 20
0.0
 30
0.0
  9
$PUCSXDIR
 10
1.0
 20
0.0
 30
0.0
  9
$PUCSYDIR
 10
0.0
 20
1.0
 30
0.0
  9
$PUCSORTHOREF
  2

  9
$PUCSORTHOVIEW
 70
     0
  9
$PUCSORGTOP
 10
0.0
 20
0.0
 30
0.0
  9
$PUCSORGBOTTOM
 10
0.0
 20
0.0
 30
0.0
  9
$PUCSORGLEFT
 10
0.0
 20
0.0
 30
0.0
  9
$PUCSORGRIGHT
 10
0.0
 20
0.0
 30
0.0
  9
$PUCSORGFRONT
 10
0.0
 20
0.0
 30
0.0
  9
$PUCSORGBACK
 10
0.0
 20
0.0
 30
0.0
  9
$USERI1
 70
     0
  9
$USERI2
 70
     0
  9
$USERI3
 70
     0
  9
$USERI4
 70
     0
  9
$USERI5
 70
     0
  9
$USERR1
 40
15.0
  9
$USERR2
 40
0.0
  9
$USERR3
 40
0.0
  9
$USERR4
 40
0.0
  9
$USERR5
 40
0.0
  9
$WORLDVIEW
 70
     1
  9
$SHADEDGE
 70
     3
  9
$SHADEDIF
 70
    70
  9
$TILEMODE
 70
     1
  9
$MAXACTVP
 70
    64
  9
$PINSBASE
 10
0.0
 20
0.0
 30
0.0
  9
$PLIMCHECK
 70
     0
  9
$PEXTMIN
 10
1.00000000000000E+20
 20
1.00000000000000E+20
 30
1.00000000000000E+20
  9
$PEXTMAX
 10
-1.00000000000000E+20
 20
-1.00000000000000E+20
 30
-1.00000000000000E+20
  9
$PLIMMIN
 10
0.0
 20
0.0
  9
$PLIMMAX
 10
12.0
 20
9.0
  9
$UNITMODE
 70
     0
  9
$VISRETAIN
 70
     1
  9
$PLINEGEN
 70
     0
  9
$PSLTSCALE
 70
     1
  9
$TREEDEPTH
 70
  3020
  9
$CMLSTYLE
  2
Standard
  9
$CMLJUST
 70
     0
  9
$CMLSCALE
 40
1.0
  9
$PROXYGRAPHICS
 70
     1
  9
$MEASUREMENT
 70
     1
  9
$CELWEIGHT
370
    -1
  9
$ENDCAPS
280
     0
  9
$JOINSTYLE
280
     0
  9
$LWDISPLAY
290
     0
  9
$INSUNITS
 70
     1
  9
$HYPERLINKBASE
  1

  9
$STYLESHEET
  1

  9
$XEDIT
290
     1
  9
$CEPSNTYPE
380
     0
  9
$PSTYLEMODE
290
     1
  9
$FINGERPRINTGUID
  2
{C74A6245-6433-4BFE-93E5-581A9C11EFE9}
  9
$VERSIONGUID
  2
{FAEB1C32-E019-11D5-929B-00C0DF256EC4}
  9
$EXTNAMES
290
     1
  9
$PSVPSCALE
 40
0.0
  9
$OLESTARTUP
290
     0
  0
ENDSEC
  0
SECTION
  2
CLASSES
  0
CLASS
  1
ACDBDICTIONARYWDFLT
  2
AcDbDictionaryWithDefault
  3
ObjectDBX Classes
 90
        0
280
     0
281
     0
  0
CLASS
  1
VISUALSTYLE
  2
AcDbVisualStyle
  3
ObjectDBX Classes
 90
     4095
280
     0
281
     0
  0
CLASS
  1

  2
exOdDbSpline
  3

 90
        0
280
     0
281
     1
  0
CLASS
  1
ACDBPLACEHOLDER
  2
AcDbPlaceHolder
  3
ObjectDBX Classes
 90
        0
280
     0
281
     0
  0
CLASS
  1
LAYOUT
  2
AcDbLayout
  3
ObjectDBX Classes
 90
        0
280
     0
281
     0
  0
ENDSEC
  0
SECTION
  2
TABLES
  0
TABLE
  2
VPORT
  5
8
330
0
100
AcDbSymbolTable
 70
     1
  0
VPORT
  5
29
330
8
100
AcDbSymbolTableRecord
100
AcDbViewportTableRecord
  2
*Active
 70
     0
 10
0.0
 20
0.0
 11
1.0
 21
1.0
 12
197.2898482254718
 22
148.1908300431894
 13
0.0
 23
0.0
 14
0.5
 24
0.5
 15
0.5
 25
0.5
 16
0.0
 26
0.0
 36
1.0
 17
0.0
 27
0.0
 37
0.0
 40
270.05
 41
1.60267857142857
 42
50.0
 43
0.0
 44
0.0
 50
0.0
 51
0.0
 71
     0
 72
   100
 73
     1
 74
     3
 75
     0
 76
     0
 77
     0
 78
     0
281
     0
 65
     1
110
0.0
120
0.0
130
0.0
111
1.0
121
0.0
131
0.0
112
0.0
122
1.0
132
0.0
 79
     0
146
0.0
  0
ENDTAB
  0
TABLE
  2
LTYPE
  5
5
330
0
100
AcDbSymbolTable
 70
     8
  0
LTYPE
  5
14
330
5
100
AcDbSymbolTableRecord
100
AcDbLinetypeTableRecord
  2
ByBlock
 70
     0
  3

 72
    65
 73
     0
 40
0.0
  0
LTYPE
  5
15
330
5
100
AcDbSymbolTableRecord
100
AcDbLinetypeTableRecord
  2
ByLayer
 70
     0
  3

 72
    65
 73
     0
 40
0.0
  0
LTYPE
  5
16
330
5
100
AcDbSymbolTableRecord
100
AcDbLinetypeTableRecord
  2
Continuous
 70
     0
  3
Solid line
 72
    65
 73
     0
 40
0.0
  0
LTYPE
  5
3B
330
5
100
AcDbSymbolTableRecord
100
AcDbLinetypeTableRecord
  2
DASHED
 70
     0
  3
Dashed
 72
    65
 73
     2
 40
15.0
 49
7.0
 74
     0
 49
-8.0
 74
     0
  0
LTYPE
  5
3C
330
5
100
AcDbSymbolTableRecord
100
AcDbLinetypeTableRecord
  2
DOTTED
 70
     0
  3
Dotted
 72
    65
 73
     2
 40
1.0
 49
0.0
 74
     0
 49
-1.0
 74
     0
  0
LTYPE
  5
3D
330
5
100
AcDbSymbolTableRecord
100
AcDbLinetypeTableRecord
  2
DOT_CENTER
 70
     0
  3
Dot_Center
 72
    65
 73
     4
 40
14.0
 49
12.0
 74
     0
 49
-1.0
 74
     0
 49
0.0
 74
     0
 49
-1.0
 74
     0
  0
LTYPE
  5
3E
330
5
100
AcDbSymbolTableRecord
100
AcDbLinetypeTableRecord
  2
LONG_DASHED
 70
     0
  3
Long_Dashed
 72
    65
 73
     2
 40
15.0
 49
10.0
 74
     0
 49
-5.0
 74
     0
  0
LTYPE
  5
3F
330
5
100
AcDbSymbolTableRecord
100
AcDbLinetypeTableRecord
  2
DASH_CENTER
 70
     0
  3
Dash_Center
 72
    65
 73
     4
 40
14.0
 49
11.0
 74
     0
 49
-1.0
 74
     0
 49
1.0
 74
     0
 49
-1.0
 74
     0
  0
LTYPE
  5
40
330
5
100
AcDbSymbolTableRecord
100
AcDbLinetypeTableRecord
  2
PHANTOM
 70
     0
  3
Phantom
 72
    65
 73
     6
 40
13.0
 49
10.0
 74
     0
 49
-1.0
 74
     0
 49
0.0
 74
     0
 49
-1.0
 74
     0
 49
0.0
 74
     0
 49
-1.0
 74
     0
  0
LTYPE
  5
41
330
5
100
AcDbSymbolTableRecord
100
AcDbLinetypeTableRecord
  2
CENTER_DASH_DASH
 70
     0
  3
Center_Dash_Dash
 72
    65
 73
     6
 40
14.0
 49
9.0
 74
     0
 49
-1.0
 74
     0
 49
1.0
 74
     0
 49
-1.0
 74
     0
 49
1.0
 74
     0
 49
-1.0
 74
     0
  0
ENDTAB
  0
TABLE
  2
LAYER
  5
2
330
0
100
AcDbSymbolTable
 70
     2
  0
LAYER
  5
10
330
2
100
AcDbSymbolTableRecord
100
AcDbLayerTableRecord
  2
0
 70
     0
 62
     7
  6
Continuous
370
    -3
390
F
  0
LAYER
  5
42
330
2
100
AcDbSymbolTableRecord
100
AcDbLayerTableRecord
  2
1
 70
     0
 62
     7
  6
Continuous
370
    -3
390
F
  0
ENDTAB
  0
TABLE
  2
STYLE
  5
3
330
0
100
AcDbSymbolTable
 70
     2
  0
STYLE
  5
11
330
3
100
AcDbSymbolTableRecord
100
AcDbTextStyleTableRecord
  2
Standard
 70
     0
 40
0.0
 41
1.0
 50
0.0
 71
     0
 42
0.2
  3
txt
  4

  0
STYLE
  5
11A
330
3
100
AcDbSymbolTableRecord
100
AcDbTextStyleTableRecord
  2
CONVERTER_11
 70
     0
 40
0.0
 41
0.9
 50
0.0
 71
     0
 42
0.2
  3
txt.shx
  4

  0
ENDTAB
  0
TABLE
  2
VIEW
  5
6
330
0
100
AcDbSymbolTable
 70
     0
  0
ENDTAB
  0
TABLE
  2
UCS
  5
7
330
0
100
AcDbSymbolTable
 70
     0
  0
ENDTAB
  0
TABLE
  2
APPID
  5
9
330
0
100
AcDbSymbolTable
 70
     1
  0
APPID
  5
12
330
9
100
AcDbSymbolTableRecord
100
AcDbRegAppTableRecord
  2
ACAD
 70
     0
  0
ENDTAB
  0
TABLE
  2
DIMSTYLE
  5
A
330
0
100
AcDbSymbolTable
 70
     5
100
AcDbDimStyleTable
  0
DIMSTYLE
105
27
330
A
100
AcDbSymbolTableRecord
100
AcDbDimStyleTableRecord
  2
Standard
 70
     0
340
11
  0
DIMSTYLE
105
125
102
{ACAD_REACTORS
330
126
102
}
330
A
100
AcDbSymbolTableRecord
100
AcDbDimStyleTableRecord
  2
ME10_DIM_10
 70
     0
 41
3.5
 42
0.0
 44
1.0
 73
     0
 74
     0
 77
     1
 78
     8
140
2.5
147
1.0
172
     1
173
     1
176
     2
177
     2
178
     2
271
     3
340
11A
  0
DIMSTYLE
105
130
102
{ACAD_REACTORS
330
131
102
}
330
A
100
AcDbSymbolTableRecord
100
AcDbDimStyleTableRecord
  2
ME10_DIM_11
 70
     0
 41
3.5
 42
0.0
 44
1.0
 73
     0
 74
     0
 77
     1
 78
     8
140
2.5
147
1.0
172
     1
173
     1
176
     2
177
     2
178
     2
271
     3
340
11A
  0
DIMSTYLE
105
13B
102
{ACAD_REACTORS
330
13C
102
}
330
A
100
AcDbSymbolTableRecord
100
AcDbDimStyleTableRecord
  2
ME10_DIM_12
 70
     0
 41
3.5
 42
0.0
 44
1.0
 73
     0
 74
     0
 77
     1
 78
     8
140
2.5
147
1.0
172
     1
173
     1
176
     2
177
     2
178
     2
271
     3
340
11A
  0
DIMSTYLE
105
146
102
{ACAD_REACTORS
330
147
102
}
330
A
100
AcDbSymbolTableRecord
100
AcDbDimStyleTableRecord
  2
ME10_DIM_13
 70
     0
 41
3.5
 42
0.0
 44
1.0
 73
     0
 74
     0
 77
     1
 78
     8
140
2.5
147
1.0
172
     1
173
     1
176
     2
177
     2
178
     2
271
     1
340
11A
  0
ENDTAB
  0
TABLE
  2
BLOCK_RECORD
  5
1
330
0
100
AcDbSymbolTable
 70
     5
  0
BLOCK_RECORD
  5
1F
330
1
100
AcDbSymbolTableRecord
100
AcDbBlockTableRecord
  2
*Model_Space
340
22
  0
BLOCK_RECORD
  5
1B
330
1
100
AcDbSymbolTableRecord
100
AcDbBlockTableRecord
  2
*Paper_Space
340
1E
  0
BLOCK_RECORD
  5
23
330
1
100
AcDbSymbolTableRecord
100
AcDbBlockTableRecord
  2
*Paper_Space0
340
26
  0
BLOCK_RECORD
  5
11C
330
1
100
AcDbSymbolTableRecord
100
AcDbBlockTableRecord
  2
*D1
340
0
  0
BLOCK_RECORD
  5
127
330
1
100
AcDbSymbolTableRecord
100
AcDbBlockTableRecord
  2
*D2
340
0
  0
BLOCK_RECORD
  5
132
330
1
100
AcDbSymbolTableRecord
100
AcDbBlockTableRecord
  2
*D3
340
0
  0
BLOCK_RECORD
  5
13D
330
1
100
AcDbSymbolTableRecord
100
AcDbBlockTableRecord
  2
*D4
340
0
  0
ENDTAB
  0
ENDSEC
  0
SECTION
  2
BLOCKS
  0
BLOCK
  5
20
330
1F
100
AcDbEntity
  8
0
100
AcDbBlockBegin
  2
*Model_Space
 70
     0
 71
     0
 10
0.0
 20
0.0
 30
0.0
  3
*Model_Space
  1

  0
ENDBLK
  5
21
330
1F
100
AcDbEntity
  8
0
100
AcDbBlockEnd
  0
BLOCK
  5
1C
330
1B
100
AcDbEntity
 67
     1
  8
0
100
AcDbBlockBegin
  2
*Paper_Space
 70
     0
 71
     0
 10
0.0
 20
0.0
 30
0.0
  3
*Paper_Space
  1

  0
ENDBLK
  5
1D
330
1B
100
AcDbEntity
 67
     1
  8
0
100
AcDbBlockEnd
  0
BLOCK
  5
24
330
23
100
AcDbEntity
  8
0
100
AcDbBlockBegin
  2
*Paper_Space0
 70
     0
 71
     0
 10
0.0
 20
0.0
 30
0.0
  3
*Paper_Space0
  1

  0
ENDBLK
  5
25
330
23
100
AcDbEntity
  8
0
100
AcDbBlockEnd
  0
BLOCK
  5
123
330
11C
100
AcDbEntity
  8
0
100
AcDbBlockBegin
  2
*D1
 70
     1
 71
     0
 10
0.0
 20
0.0
 30
0.0
  3
*D1
  1

  0
LINE
  5
11D
330
11C
100
AcDbEntity
  8
1
  6
Continuous
 62
     2
100
AcDbLine
 10
92.184586080631
 20
205.8689609301413
 30
0.0
 11
116.184586080631
 21
205.8689609301413
 31
0.0
  0
LINE
  5
11E
330
11C
100
AcDbEntity
  8
1
  6
Continuous
 62
     2
100
AcDbLine
 10
92.184586080631
 20
231.3473062151253
 30
0.0
 11
92.184586080631
 21
204.8689609301413
 31
0.0
  0
LINE
  5
11F
330
11C
100
AcDbEntity
  8
1
  6
Continuous
 62
     2
100
AcDbLine
 10
116.184586080631
 20
231.3473062151253
 30
0.0
 11
116.184586080631
 21
204.8689609301413
 31
0.0
  0
SOLID
  5
120
330
11C
100
AcDbEntity
  8
1
 62
     2
100
AcDbTrace
 10
95.684586080631
 20
206.3297446716972
 30
0.0
 11
95.684586080631
 21
205.4081771885854
 31
0.0
 12
92.184586080631
 22
205.8689609301413
 32
0.0
 13
92.184586080631
 23
205.8689609301413
 33
0.0
  0
SOLID
  5
121
330
11C
100
AcDbEntity
  8
1
 62
     2
100
AcDbTrace
 10
112.684586080631
 20
205.4081771885854
 30
0.0
 11
112.684586080631
 21
206.3297446716972
 31
0.0
 12
116.184586080631
 22
205.8689609301413
 32
0.0
 13
116.184586080631
 23
205.8689609301413
 33
0.0
  0
MTEXT
  5
122
330
11C
100
AcDbEntity
  8
1
 62
     2
100
AcDbMText
 10
102.309586080631
 20
206.8689609301413
 30
0.0
 40
2.5
 41
0.0
 71
     7
 72
     1
  1
24
  7
CONVERTER_11
 11
0.9999999999970619
 21
2.424068405545306E-6
 31
0.0
 73
     1
 44
0.60024009603842
  0
ENDBLK
  5
124
330
11C
100
AcDbEntity
  8
0
100
AcDbBlockEnd
  0
BLOCK
  5
12E
330
127
100
AcDbEntity
  8
0
100
AcDbBlockBegin
  2
*D2
 70
     1
 71
     0
 10
0.0
 20
0.0
 30
0.0
  3
*D2
  1

  0
LINE
  5
128
330
127
100
AcDbEntity
  8
1
  6
Continuous
 62
     2
100
AcDbLine
 10
231.1845735130142
 20
195.3723335346826
 30
0.0
 11
354.6845735127949
 21
195.3723335346826
 31
0.0
  0
LINE
  5
129
330
127
100
AcDbEntity
  8
1
  6
Continuous
 62
     2
100
AcDbLine
 10
231.1845735130142
 20
222.3417274815201
 30
0.0
 11
231.1845735130142
 21
194.3723335346826
 31
0.0
  0
LINE
  5
12A
330
127
100
AcDbEntity
  8
1
  6
Continuous
 62
     2
100
AcDbLine
 10
354.6845735127949
 20
254.8746991789297
 30
0.0
 11
354.6845735127949
 21
194.3723335346826
 31
0.0
  0
SOLID
  5
12B
330
127
100
AcDbEntity
  8
1
 62
     2
100
AcDbTrace
 10
234.6845735130142
 20
195.8331172762385
 30
0.0
 11
234.6845735130142
 21
194.9115497931267
 31
0.0
 12
231.1845735130142
 22
195.3723335346826
 32
0.0
 13
231.1845735130142
 23
195.3723335346826
 33
0.0
  0
SOLID
  5
12C
330
127
100
AcDbEntity
  8
1
 62
     2
100
AcDbTrace
 10
351.1845735127949
 20
194.9115497931267
 30
0.0
 11
351.1845735127949
 21
195.8331172762385
 31
0.0
 12
354.6845735127949
 22
195.3723335346826
 32
0.0
 13
354.6845735127949
 23
195.3723335346826
 33
0.0
  0
MTEXT
  5
12D
330
127
100
AcDbEntity
  8
1
 62
     2
100
AcDbMText
 10
286.3903075052904
 20
196.6223335346826
 30
0.0
 40
2.5
 41
0.0
 71
     7
 72
     1
  1
123,5
  7
CONVERTER_11
 11
0.9999999999970619
 21
2.424068405545306E-6
 31
0.0
 73
     1
 44
0.60024009603842
  0
ENDBLK
  5
12F
330
127
100
AcDbEntity
  8
0
100
AcDbBlockEnd
  0
BLOCK
  5
139
330
132
100
AcDbEntity
  8
0
100
AcDbBlockBegin
  2
*D3
 70
     1
 71
     0
 10
0.0
 20
0.0
 30
0.0
  3
*D3
  1

  0
LINE
  5
133
330
132
100
AcDbEntity
  8
1
  6
Continuous
 62
     2
100
AcDbLine
 10
164.1845743552924
 20
194.5604426662794
 30
0.0
 11
44.18457433605209
 21
194.5604426662794
 31
0.0
  0
LINE
  5
134
330
132
100
AcDbEntity
  8
1
  6
Continuous
 62
     2
100
AcDbLine
 10
164.1845743552924
 20
254.8746991595833
 30
0.0
 11
164.1845743552924
 21
193.5604426662794
 31
0.0
  0
LINE
  5
135
330
132
100
AcDbEntity
  8
1
  6
Continuous
 62
     2
100
AcDbLine
 10
44.18457433605209
 20
254.8746991595832
 30
0.0
 11
44.18457433605209
 21
193.5604426662794
 31
0.0
  0
SOLID
  5
136
330
132
100
AcDbEntity
  8
1
 62
     2
100
AcDbTrace
 10
160.6845743552924
 20
194.0996589247235
 30
0.0
 11
160.6845743552924
 21
195.0212264078353
 31
0.0
 12
164.1845743552924
 22
194.5604426662794
 32
0.0
 13
164.1845743552924
 23
194.5604426662794
 33
0.0
  0
SOLID
  5
137
330
132
100
AcDbEntity
  8
1
 62
     2
100
AcDbTrace
 10
47.68457433605209
 20
195.0212264078353
 30
0.0
 11
47.68457433605209
 21
194.0996589247235
 31
0.0
 12
44.18457433605209
 22
194.5604426662794
 32
0.0
 13
44.18457433605209
 23
194.5604426662794
 33
0.0
  0
MTEXT
  5
138
330
132
100
AcDbEntity
  8
1
 62
     2
100
AcDbMText
 10
101.559586080631
 20
195.5604426662794
 30
0.0
 40
2.5
 41
0.0
 71
     7
 72
     1
  1
120
  7
CONVERTER_11
 11
0.9999999999970619
 21
2.424068405545306E-6
 31
0.0
 73
     1
 44
0.60024009603842
  0
ENDBLK
  5
13A
330
132
100
AcDbEntity
  8
0
100
AcDbBlockEnd
  0
BLOCK
  5
144
330
13D
100
AcDbEntity
  8
0
100
AcDbBlockBegin
  2
*D4
 70
     1
 71
     0
 10
0.0
 20
0.0
 30
0.0
  3
*D4
  1

  0
LINE
  5
13E
330
13D
100
AcDbEntity
  8
1
  6
Continuous
 62
     2
100
AcDbLine
 10
179.0154880867062
 20
220.3417274815201
 30
0.0
 11
179.0154880867062
 21
264.1000452102519
 31
0.0
  0
LINE
  5
13F
330
13D
100
AcDbEntity
  8
1
  6
Continuous
 62
     2
100
AcDbLine
 10
136.6845860806314
 20
220.3417274815201
 30
0.0
 11
180.0154880867062
 21
220.3417274815201
 31
0.0
  0
LINE
  5
140
330
13D
100
AcDbEntity
  8
1
  6
Continuous
 62
     2
100
AcDbLine
 10
163.1845743552924
 20
264.1000452102519
 30
0.0
 11
180.0154880867062
 21
264.1000452102519
 31
0.0
  0
SOLID
  5
141
330
13D
100
AcDbEntity
  8
1
 62
     2
100
AcDbTrace
 10
178.5547043451503
 20
223.8417274815201
 30
0.0
 11
179.4762718282621
 21
223.8417274815201
 31
0.0
 12
179.0154880867062
 22
220.3417274815201
 32
0.0
 13
179.0154880867062
 23
220.3417274815201
 33
0.0
  0
SOLID
  5
142
330
13D
100
AcDbEntity
  8
1
 62
     2
100
AcDbTrace
 10
179.4762718282621
 20
260.6000452102519
 30
0.0
 11
178.5547043451503
 21
260.6000452102519
 31
0.0
 12
179.0154880867062
 22
264.1000452102519
 32
0.0
 13
179.0154880867062
 23
264.1000452102519
 33
0.0
  0
MTEXT
  5
143
330
13D
100
AcDbEntity
  8
1
 62
     2
100
AcDbMText
 10
177.7654880867062
 20
236.3144977714223
 30
0.0
 40
2.5
 41
0.0
 71
     7
 72
     1
  1
43,8
  7
CONVERTER_11
 11
0.0
 21
1.0
 31
0.0
 73
     1
 44
0.60024009603842
  0
ENDBLK
  5
145
330
13D
100
AcDbEntity
  8
0
100
AcDbBlockEnd
  0
ENDSEC
  0
SECTION
  2
ENTITIES
  0
POINT
  5
43
330
1F
100
AcDbEntity
  8
1
 62
     3
 60
     1
100
AcDbPoint
 10
27.2898482254718
 20
25.4408300431894
 30
0.0
  0
POINT
  5
44
330
1F
100
AcDbEntity
  8
1
 62
     3
 60
     1
100
AcDbPoint
 10
367.2898482254718
 20
270.9408300431894
 30
0.0
  0
LINE
  5
45
330
1F
100
AcDbEntity
  8
1
  6
PHANTOM
 62
     4
100
AcDbLine
 10
27.2898482254718
 20
270.9408300431894
 30
0.0
 11
27.2898482254718
 21
25.4408300431894
 31
0.0
  0
LINE
  5
46
330
1F
100
AcDbEntity
  8
1
  6
PHANTOM
 62
     4
100
AcDbLine
 10
367.2898482254718
 20
270.9408300431894
 30
0.0
 11
27.2898482254718
 21
270.9408300431894
 31
0.0
  0
LINE
  5
47
330
1F
100
AcDbEntity
  8
1
  6
PHANTOM
 62
     4
100
AcDbLine
 10
367.2898482254718
 20
25.4408300431894
 30
0.0
 11
367.2898482254718
 21
270.9408300431894
 31
0.0
  0
LINE
  5
48
330
1F
100
AcDbEntity
  8
1
  6
PHANTOM
 62
     4
100
AcDbLine
 10
27.2898482254718
 20
25.4408300431894
 30
0.0
 11
367.2898482254718
 21
25.4408300431894
 31
0.0
  0
LINE
  5
49
330
1F
100
AcDbEntity
  8
0
  6
Continuous
 62
     7
100
AcDbLine
 10
119.906858085811
 20
103.8417283220082
 30
0.0
 11
119.906858085811
 21
75.84172832200822
 31
0.0
  0
LINE
  5
4A
330
1F
100
AcDbEntity
  8
0
  6
Continuous
 62
     7
100
AcDbLine
 10
118.1845743552919
 20
74.11944459148923
 30
0.0
 11
90.184574355292
 21
74.11944459148923
 31
0.0
  0
LINE
  5
4B
330
1F
100
AcDbEntity
  8
0
  6
Continuous
 62
     7
100
AcDbLine
 10
88.46229062477292
 20
75.84172832200822
 30
0.0
 11
88.46229062477292
 21
103.8417283220082
 31
0.0
  0
LINE
  5
4C
330
1F
100
AcDbEntity
  8
0
  6
Continuous
 62
     7
100
AcDbLine
 10
90.184574355292
 20
105.5640120525272
 30
0.0
 11
118.1845743552919
 21
105.5640120525272
 31
0.0
  0
LINE
  5
4D
330
1F
100
AcDbEntity
  8
0
  6
Continuous
 62
     7
100
AcDbLine
 10
50.3976871953675
 20
264.1000452102519
 30
0.0
 11
53.49972801169412
 21
264.1000452102519
 31
0.0
  0
LINE
  5
4E
330
1F
100
AcDbEntity
  8
0
  6
Continuous
 62
     7
100
AcDbLine
 10
45.18457435529231
 20
264.1000452102519
 30
0.0
 11
50.3976871953675
 21
264.1000452102519
 31
0.0
  0
LINE
  5
4F
330
1F
100
AcDbEntity
  8
0
  6
Continuous
 62
     7
100
AcDbLine
 10
44.18457435529231
 20
263.1000452102519
 30
0.0
 11
44.18457433605209
 21
254.8746991595832
 31
0.0
  0
LINE
  5
50
330
1F
100
AcDbEntity
  8
0
  6
Continuous
 62
     7
100
AcDbLine
 10
53.49972801169412
 20
264.1000452102519
 30
0.0
 11
154.86942069889
 21
264.1000452102519
 31
0.0
  0
LINE
  5
51
330
1F
100
AcDbEntity
  8
0
  6
Continuous
 62
     7
100
AcDbLine
 10
154.86942069889
 20
264.1000452102519
 30
0.0
 11
157.9714615152166
 21
264.1000452102519
 31
0.0
  0
LINE
  5
52
330
1F
100
AcDbEntity
  8
0
  6
Continuous
 62
     7
100
AcDbLine
 10
164.1845743552924
 20
263.1000452102519
 30
0.0
 11
164.1845743552924
 21
254.8746991595833
 31
0.0
  0
LINE
  5
53
330
1F
100
AcDbEntity
  8
0
  6
Continuous
 62
     7
100
AcDbLine
 10
157.9714615152166
 20
264.1000452102519
 30
0.0
 11
163.1845743552924
 21
264.1000452102519
 31
0.0
  0
LINE
  5
54
330
1F
100
AcDbEntity
  8
0
  6
Continuous
 62
     7
100
AcDbLine
 10
70.68458608063142
 20
245.3417274815201
 30
0.0
 11
70.68458608063142
 21
221.3417274815201
 31
0.0
  0
LINE
  5
55
330
1F
100
AcDbEntity
  8
0
  6
Continuous
 62
     7
100
AcDbLine
 10
71.68458608063142
 20
221.3417274815201
 30
0.0
 11
73.68458608063142
 21
221.3417274815201
 31
0.0
  0
LINE
  5
56
330
1F
100
AcDbEntity
  8
0
  6
Continuous
 62
     7
100
AcDbLine
 10
82.68458608063142
 20
245.3417274815201
 30
0.0
 11
125.6845860806314
 21
245.3417274815201
 31
0.0
  0
LINE
  5
57
330
1F
100
AcDbEntity
  8
0
  6
Continuous
 62
     7
100
AcDbLine
 10
71.68458608063142
 20
245.3417274815201
 30
0.0
 11
73.68458608063142
 21
245.3417274815201
 31
0.0
  0
LINE
  5
58
330
1F
100
AcDbEntity
  8
0
  6
Continuous
 62
     7
100
AcDbLine
 10
70.68458608063142
 20
245.3417274815201
 30
0.0
 11
71.68458608063142
 21
245.3417274815201
 31
0.0
  0
LINE
  5
59
330
1F
100
AcDbEntity
  8
0
  6
Continuous
 62
     7
100
AcDbLine
 10
125.6845860806314
 20
221.3417274815201
 30
0.0
 11
128.6845860806314
 21
221.3417274815201
 31
0.0
  0
LINE
  5
5A
330
1F
100
AcDbEntity
  8
0
  6
Continuous
 62
     7
100
AcDbLine
 10
128.6845860806314
 20
221.3417274815201
 30
0.0
 11
134.6845860806314
 21
221.3417274815201
 31
0.0
  0
LINE
  5
5B
330
1F
100
AcDbEntity
  8
0
  6
Continuous
 62
     7
100
AcDbLine
 10
128.6845860806314
 20
245.3417274815201
 30
0.0
 11
134.6845860806314
 21
245.3417274815201
 31
0.0
  0
LINE
  5
5C
330
1F
100
AcDbEntity
  8
0
  6
Continuous
 62
     7
100
AcDbLine
 10
134.6845860806314
 20
245.3417274815201
 30
0.0
 11
136.6845860806314
 21
245.3417274815201
 31
0.0
  0
LINE
  5
5D
330
1F
100
AcDbEntity
  8
0
  6
Continuous
 62
     7
100
AcDbLine
 10
125.6845860806314
 20
245.3417274815201
 30
0.0
 11
128.6845860806314
 21
245.3417274815201
 31
0.0
  0
LINE
  5
5E
330
1F
100
AcDbEntity
  8
0
  6
Continuous
 62
     7
100
AcDbLine
 10
73.68458608063142
 20
221.3417274815201
 30
0.0
 11
79.68458608063142
 21
221.3417274815201
 31
0.0
  0
LINE
  5
5F
330
1F
100
AcDbEntity
  8
0
  6
Continuous
 62
     7
100
AcDbLine
 10
73.68458608063142
 20
245.3417274815201
 30
0.0
 11
79.68458608063142
 21
245.3417274815201
 31
0.0
  0
LINE
  5
60
330
1F
100
AcDbEntity
  8
0
  6
Continuous
 62
     7
100
AcDbLine
 10
79.68458608063142
 20
221.3417274815201
 30
0.0
 11
82.68458608063142
 21
221.3417274815201
 31
0.0
  0
LINE
  5
61
330
1F
100
AcDbEntity
  8
0
  6
Continuous
 62
     7
100
AcDbLine
 10
79.68458608063142
 20
245.3417274815201
 30
0.0
 11
82.68458608063142
 21
245.3417274815201
 31
0.0
  0
LINE
  5
62
330
1F
100
AcDbEntity
  8
0
  6
Continuous
 62
     7
100
AcDbLine
 10
136.6845860806314
 20
221.3417274815201
 30
0.0
 11
137.6845860806314
 21
221.3417274815201
 31
0.0
  0
LINE
  5
63
330
1F
100
AcDbEntity
  8
0
  6
Continuous
 62
     7
100
AcDbLine
 10
82.68458608063142
 20
221.3417274815201
 30
0.0
 11
125.6845860806314
 21
221.3417274815201
 31
0.0
  0
LINE
  5
64
330
1F
100
AcDbEntity
  8
0
  6
Continuous
 62
     7
100
AcDbLine
 10
70.68458608063142
 20
221.3417274815201
 30
0.0
 11
71.68458608063142
 21
221.3417274815201
 31
0.0
  0
LINE
  5
65
330
1F
100
AcDbEntity
  8
0
  6
Continuous
 62
     7
100
AcDbLine
 10
137.6845860806314
 20
245.3417274815201
 30
0.0
 11
137.6845860806314
 21
221.3417274815201
 31
0.0
  0
LINE
  5
66
330
1F
100
AcDbEntity
  8
0
  6
Continuous
 62
     7
100
AcDbLine
 10
134.6845860806314
 20
221.3417274815201
 30
0.0
 11
136.6845860806314
 21
221.3417274815201
 31
0.0
  0
LINE
  5
67
330
1F
100
AcDbEntity
  8
0
  6
Continuous
 62
     7
100
AcDbLine
 10
136.6845860806314
 20
245.3417274815201
 30
0.0
 11
137.6845860806314
 21
245.3417274815201
 31
0.0
  0
LINE
  5
68
330
1F
100
AcDbEntity
  8
0
  6
Continuous
 62
     7
100
AcDbLine
 10
71.68458608063142
 20
221.3417274815201
 30
0.0
 11
71.68458608063142
 21
220.3417274815201
 31
0.0
  0
LINE
  5
69
330
1F
100
AcDbEntity
  8
0
  6
Continuous
 62
     7
100
AcDbLine
 10
71.68458608063142
 20
221.3417274815201
 30
0.0
 11
73.68458608063142
 21
221.3417274815201
 31
0.0
  0
LINE
  5
6A
330
1F
100
AcDbEntity
  8
0
  6
Continuous
 62
     7
100
AcDbLine
 10
82.68458608063142
 20
245.3417274815201
 30
0.0
 11
125.6845860806314
 21
245.3417274815201
 31
0.0
  0
LINE
  5
6B
330
1F
100
AcDbEntity
  8
0
  6
Continuous
 62
     7
100
AcDbLine
 10
82.68458608063142
 20
246.3417274815201
 30
0.0
 11
125.6845860806314
 21
246.3417274815201
 31
0.0
  0
LINE
  5
6C
330
1F
100
AcDbEntity
  8
0
  6
Continuous
 62
     7
100
AcDbLine
 10
71.68458608063142
 20
245.3417274815201
 30
0.0
 11
73.68458608063142
 21
245.3417274815201
 31
0.0
  0
LINE
  5
6D
330
1F
100
AcDbEntity
  8
0
  6
Continuous
 62
     7
100
AcDbLine
 10
71.68458608063142
 20
246.3417274815201
 30
0.0
 11
82.68458608063142
 21
246.3417274815201
 31
0.0
  0
LINE
  5
6E
330
1F
100
AcDbEntity
  8
0
  6
Continuous
 62
     7
100
AcDbLine
 10
71.68458608063142
 20
246.3417274815201
 30
0.0
 11
71.68458608063142
 21
245.3417274815201
 31
0.0
  0
LINE
  5
6F
330
1F
100
AcDbEntity
  8
0
  6
Continuous
 62
     7
100
AcDbLine
 10
125.6845860806314
 20
221.3417274815201
 30
0.0
 11
128.6845860806314
 21
221.3417274815201
 31
0.0
  0
LINE
  5
70
330
1F
100
AcDbEntity
  8
0
  6
Continuous
 62
     7
100
AcDbLine
 10
128.6845860806314
 20
221.3417274815201
 30
0.0
 11
134.6845860806314
 21
221.3417274815201
 31
0.0
  0
LINE
  5
71
330
1F
100
AcDbEntity
  8
0
  6
Continuous
 62
     7
100
AcDbLine
 10
125.6845860806314
 20
246.3417274815201
 30
0.0
 11
136.6845860806314
 21
246.3417274815201
 31
0.0
  0
LINE
  5
72
330
1F
100
AcDbEntity
  8
0
  6
Continuous
 62
     7
100
AcDbLine
 10
136.6845860806314
 20
246.3417274815201
 30
0.0
 11
136.6845860806314
 21
245.3417274815201
 31
0.0
  0
LINE
  5
73
330
1F
100
AcDbEntity
  8
0
  6
Continuous
 62
     7
100
AcDbLine
 10
128.6845860806314
 20
245.3417274815201
 30
0.0
 11
134.6845860806314
 21
245.3417274815201
 31
0.0
  0
LINE
  5
74
330
1F
100
AcDbEntity
  8
0
  6
Continuous
 62
     7
100
AcDbLine
 10
134.6845860806314
 20
245.3417274815201
 30
0.0
 11
136.6845860806314
 21
245.3417274815201
 31
0.0
  0
LINE
  5
75
330
1F
100
AcDbEntity
  8
0
  6
Continuous
 62
     7
100
AcDbLine
 10
125.6845860806314
 20
245.3417274815201
 30
0.0
 11
128.6845860806314
 21
245.3417274815201
 31
0.0
  0
LINE
  5
76
330
1F
100
AcDbEntity
  8
0
  6
Continuous
 62
     7
100
AcDbLine
 10
82.68458608063142
 20
220.3417274815201
 30
0.0
 11
125.6845860806314
 21
220.3417274815201
 31
0.0
  0
LINE
  5
77
330
1F
100
AcDbEntity
  8
0
  6
Continuous
 62
     7
100
AcDbLine
 10
125.6845860806314
 20
220.3417274815201
 30
0.0
 11
136.6845860806314
 21
220.3417274815201
 31
0.0
  0
LINE
  5
78
330
1F
100
AcDbEntity
  8
0
  6
Continuous
 62
     7
100
AcDbLine
 10
71.68458608063142
 20
220.3417274815201
 30
0.0
 11
82.68458608063142
 21
220.3417274815201
 31
0.0
  0
LINE
  5
79
330
1F
100
AcDbEntity
  8
0
  6
Continuous
 62
     7
100
AcDbLine
 10
73.68458608063142
 20
221.3417274815201
 30
0.0
 11
79.68458608063142
 21
221.3417274815201
 31
0.0
  0
LINE
  5
7A
330
1F
100
AcDbEntity
  8
0
  6
Continuous
 62
     7
100
AcDbLine
 10
73.68458608063142
 20
245.3417274815201
 30
0.0
 11
79.68458608063142
 21
245.3417274815201
 31
0.0
  0
LINE
  5
7B
330
1F
100
AcDbEntity
  8
0
  6
Continuous
 62
     7
100
AcDbLine
 10
79.68458608063142
 20
221.3417274815201
 30
0.0
 11
82.68458608063142
 21
221.3417274815201
 31
0.0
  0
LINE
  5
7C
330
1F
100
AcDbEntity
  8
0
  6
Continuous
 62
     7
100
AcDbLine
 10
79.68458608063142
 20
245.3417274815201
 30
0.0
 11
82.68458608063142
 21
245.3417274815201
 31
0.0
  0
LINE
  5
7D
330
1F
100
AcDbEntity
  8
0
  6
Continuous
 62
     7
100
AcDbLine
 10
82.68458608063142
 20
221.3417274815201
 30
0.0
 11
125.6845860806314
 21
221.3417274815201
 31
0.0
  0
LINE
  5
7E
330
1F
100
AcDbEntity
  8
0
  6
Continuous
 62
     7
100
AcDbLine
 10
136.6845860806314
 20
221.3417274815201
 30
0.0
 11
136.6845860806314
 21
220.3417274815201
 31
0.0
  0
LINE
  5
7F
330
1F
100
AcDbEntity
  8
0
  6
Continuous
 62
     7
100
AcDbLine
 10
134.6845860806314
 20
221.3417274815201
 30
0.0
 11
136.6845860806314
 21
221.3417274815201
 31
0.0
  0
LINE
  5
80
330
1F
100
AcDbEntity
  8
0
  6
Continuous
 62
     7
100
AcDbLine
 10
261.1845735130142
 20
241.5917274815201
 30
0.0
 11
261.1845735130142
 21
241.3417274815201
 31
0.0
  0
LINE
  5
81
330
1F
100
AcDbEntity
  8
0
  6
Continuous
 62
     7
100
AcDbLine
 10
261.1845735130142
 20
244.3417274815201
 30
0.0
 11
261.1845735130142
 21
241.5917274815201
 31
0.0
  0
LINE
  5
82
330
1F
100
AcDbEntity
  8
0
  6
Continuous
 62
     7
100
AcDbLine
 10
231.1845735130142
 20
244.3417274815201
 30
0.0
 11
231.1845735130142
 21
241.3417274815201
 31
0.0
  0
LINE
  5
83
330
1F
100
AcDbEntity
  8
0
  6
Continuous
 62
     7
100
AcDbLine
 10
261.1845735130142
 20
244.3417274815201
 30
0.0
 11
231.1845735130142
 21
244.3417274815201
 31
0.0
  0
LINE
  5
84
330
1F
100
AcDbEntity
  8
0
  6
Continuous
 62
     7
100
AcDbLine
 10
261.1845735130142
 20
241.3417274815201
 30
0.0
 11
261.1845735130142
 21
240.5917274815201
 31
0.0
  0
LINE
  5
85
330
1F
100
AcDbEntity
  8
0
  6
Continuous
 62
     7
100
AcDbLine
 10
261.1845735130142
 20
240.5917274815201
 30
0.0
 11
261.1845735130142
 21
226.0917274815201
 31
0.0
  0
LINE
  5
86
330
1F
100
AcDbEntity
  8
0
  6
Continuous
 62
     7
100
AcDbLine
 10
261.1845735130142
 20
225.0917274815201
 30
0.0
 11
261.1845735130142
 21
222.3417274815201
 31
0.0
  0
LINE
  5
87
330
1F
100
AcDbEntity
  8
0
  6
Continuous
 62
     7
100
AcDbLine
 10
261.1845735130142
 20
225.3417274815201
 30
0.0
 11
261.1845735130142
 21
225.0917274815201
 31
0.0
  0
LINE
  5
88
330
1F
100
AcDbEntity
  8
0
  6
Continuous
 62
     7
100
AcDbLine
 10
261.1845735130142
 20
226.0917274815201
 30
0.0
 11
261.1845735130142
 21
225.3417274815201
 31
0.0
  0
LINE
  5
89
330
1F
100
AcDbEntity
  8
0
  6
Continuous
 62
     7
100
AcDbLine
 10
231.1845735130142
 20
235.1948740993486
 30
0.0
 11
231.1845735130142
 21
231.4652628595543
 31
0.0
  0
LINE
  5
8A
330
1F
100
AcDbEntity
  8
0
  6
Continuous
 62
     7
100
AcDbLine
 10
231.1845735130142
 20
230.3417274815201
 30
0.0
 11
231.1845735130142
 21
225.3417274815201
 31
0.0
  0
LINE
  5
8B
330
1F
100
AcDbEntity
  8
0
  6
Continuous
 62
     7
100
AcDbLine
 10
231.1845735130142
 20
241.3417274815201
 30
0.0
 11
231.1845735130142
 21
236.3417274815201
 31
0.0
  0
LINE
  5
8C
330
1F
100
AcDbEntity
  8
0
  6
Continuous
 62
     7
100
AcDbLine
 10
231.1845735130142
 20
236.3417274815201
 30
0.0
 11
231.1845735130142
 21
235.1948740993486
 31
0.0
  0
LINE
  5
8D
330
1F
100
AcDbEntity
  8
0
  6
Continuous
 62
     7
100
AcDbLine
 10
231.1845735130142
 20
231.4652628595543
 30
0.0
 11
231.1845735130142
 21
230.3417274815201
 31
0.0
  0
LINE
  5
8E
330
1F
100
AcDbEntity
  8
0
  6
Continuous
 62
     7
100
AcDbLine
 10
231.1845735130142
 20
225.3417274815201
 30
0.0
 11
231.1845735130142
 21
222.3417274815201
 31
0.0
  0
LINE
  5
8F
330
1F
100
AcDbEntity
  8
0
  6
Continuous
 62
     7
100
AcDbLine
 10
261.1845735130142
 20
222.3417274815201
 30
0.0
 11
231.1845735130142
 21
222.3417274815201
 31
0.0
  0
LINE
  5
90
330
1F
100
AcDbEntity
  8
0
  6
Continuous
 62
     7
100
AcDbLine
 10
231.1845735130142
 20
235.1948740993486
 30
0.0
 11
231.1845735130142
 21
231.4652628595543
 31
0.0
  0
LINE
  5
91
330
1F
100
AcDbEntity
  8
0
  6
Continuous
 62
     7
100
AcDbLine
 10
231.1845735130142
 20
230.3417274815201
 30
0.0
 11
231.1845735130142
 21
225.3417274815201
 31
0.0
  0
LINE
  5
92
330
1F
100
AcDbEntity
  8
0
  6
Continuous
 62
     7
100
AcDbLine
 10
231.1845735130142
 20
241.3417274815201
 30
0.0
 11
231.1845735130142
 21
236.3417274815201
 31
0.0
  0
LINE
  5
93
330
1F
100
AcDbEntity
  8
0
  6
Continuous
 62
     7
100
AcDbLine
 10
231.1845735130142
 20
236.3417274815201
 30
0.0
 11
231.1845735130142
 21
235.1948740993486
 31
0.0
  0
LINE
  5
94
330
1F
100
AcDbEntity
  8
0
  6
Continuous
 62
     7
100
AcDbLine
 10
231.1845735130142
 20
231.4652628595543
 30
0.0
 11
231.1845735130142
 21
230.3417274815201
 31
0.0
  0
LINE
  5
95
330
1F
100
AcDbEntity
  8
0
  6
Continuous
 62
     7
100
AcDbLine
 10
247.6845735130142
 20
222.3417274815201
 30
0.0
 11
247.6845735130142
 21
222.1559410438931
 31
0.0
  0
LINE
  5
96
330
1F
100
AcDbEntity
  8
0
  6
Continuous
 62
     7
100
AcDbLine
 10
242.6845735130142
 20
222.3417274815201
 30
0.0
 11
242.6845735130142
 21
222.1559410438931
 31
0.0
  0
LINE
  5
97
330
1F
100
AcDbEntity
  8
0
  6
Continuous
 62
     7
100
AcDbLine
 10
242.6845735130142
 20
222.1559410438931
 30
0.0
 11
247.6845735130142
 21
222.1559410438931
 31
0.0
  0
LINE
  5
98
330
1F
100
AcDbEntity
  8
1
  6
Continuous
 62
     2
100
AcDbLine
 10
247.2845735130142
 20
222.3417274815201
 30
0.0
 11
247.2845735130142
 21
222.1559410438931
 31
0.0
  0
LINE
  5
99
330
1F
100
AcDbEntity
  8
1
  6
Continuous
 62
     7
100
AcDbLine
 10
247.6845735130142
 20
222.1559410438931
 30
0.0
 11
247.2845735130142
 21
222.1559410438931
 31
0.0
  0
LINE
  5
9A
330
1F
100
AcDbEntity
  8
1
  6
Continuous
 62
     2
100
AcDbLine
 10
243.0845735130142
 20
222.3417274815201
 30
0.0
 11
243.0845735130142
 21
222.1559410438931
 31
0.0
  0
LINE
  5
9B
330
1F
100
AcDbEntity
  8
1
  6
Continuous
 62
     7
100
AcDbLine
 10
242.6845735130142
 20
222.1559410438931
 30
0.0
 11
243.0845735130142
 21
222.1559410438931
 31
0.0
  0
LINE
  5
9C
330
1F
100
AcDbEntity
  8
0
  6
Continuous
 62
     7
100
AcDbLine
 10
261.1845735130142
 20
241.5917274815201
 30
0.0
 11
261.1845735130142
 21
241.3417274815201
 31
0.0
  0
LINE
  5
9D
330
1F
100
AcDbEntity
  8
0
  6
Continuous
 62
     7
100
AcDbLine
 10
261.1845735130142
 20
241.3417274815201
 30
0.0
 11
261.1845735130142
 21
240.5917274815201
 31
0.0
  0
LINE
  5
9E
330
1F
100
AcDbEntity
  8
0
  6
Continuous
 62
     7
100
AcDbLine
 10
261.1845735130142
 20
240.5917274815201
 30
0.0
 11
261.1845735130142
 21
226.0917274815201
 31
0.0
  0
LINE
  5
9F
330
1F
100
AcDbEntity
  8
0
  6
Continuous
 62
     7
100
AcDbLine
 10
261.1845735130142
 20
225.3417274815201
 30
0.0
 11
261.1845735130142
 21
225.0917274815201
 31
0.0
  0
LINE
  5
A0
330
1F
100
AcDbEntity
  8
0
  6
Continuous
 62
     7
100
AcDbLine
 10
261.1845735130142
 20
226.0917274815201
 30
0.0
 11
261.1845735130142
 21
225.3417274815201
 31
0.0
  0
LINE
  5
A1
330
1F
100
AcDbEntity
  8
0
  6
Continuous
 62
     7
100
AcDbLine
 10
261.1845735130142
 20
241.5917274815201
 30
0.0
 11
261.1845735130142
 21
241.3417274815201
 31
0.0
  0
LINE
  5
A2
330
1F
100
AcDbEntity
  8
0
  6
Continuous
 62
     7
100
AcDbLine
 10
261.1845735130142
 20
244.3417274815201
 30
0.0
 11
261.1845735130142
 21
241.5917274815201
 31
0.0
  0
LINE
  5
A3
330
1F
100
AcDbEntity
  8
0
  6
Continuous
 62
     7
100
AcDbLine
 10
273.1845735130142
 20
221.3417274815201
 30
0.0
 11
316.1845735130142
 21
221.3417274815201
 31
0.0
  0
LINE
  5
A4
330
1F
100
AcDbEntity
  8
0
  6
Continuous
 62
     7
100
AcDbLine
 10
319.1845735130142
 20
245.3417274815201
 30
0.0
 11
325.1845735130142
 21
245.3417274815201
 31
0.0
  0
LINE
  5
A5
330
1F
100
AcDbEntity
  8
0
  6
Continuous
 62
     7
100
AcDbLine
 10
325.1845735130142
 20
245.3417274815201
 30
0.0
 11
327.1845735130142
 21
245.3417274815201
 31
0.0
  0
LINE
  5
A6
330
1F
100
AcDbEntity
  8
0
  6
Continuous
 62
     7
100
AcDbLine
 10
316.1845735130142
 20
245.3417274815201
 30
0.0
 11
319.1845735130142
 21
245.3417274815201
 31
0.0
  0
LINE
  5
A7
330
1F
100
AcDbEntity
  8
0
  6
Continuous
 62
     7
100
AcDbLine
 10
327.1845735130142
 20
245.3417274815201
 30
0.0
 11
328.1845735130142
 21
245.3417274815201
 31
0.0
  0
LINE
  5
A8
330
1F
100
AcDbEntity
  8
0
  6
Continuous
 62
     7
100
AcDbLine
 10
273.1845735130142
 20
245.3417274815201
 30
0.0
 11
316.1845735130142
 21
245.3417274815201
 31
0.0
  0
LINE
  5
A9
330
1F
100
AcDbEntity
  8
0
  6
Continuous
 62
     7
100
AcDbLine
 10
319.1845735130142
 20
221.3417274815201
 30
0.0
 11
325.1845735130142
 21
221.3417274815201
 31
0.0
  0
LINE
  5
AA
330
1F
100
AcDbEntity
  8
0
  6
Continuous
 62
     7
100
AcDbLine
 10
316.1845735130142
 20
221.3417274815201
 30
0.0
 11
319.1845735130142
 21
221.3417274815201
 31
0.0
  0
LINE
  5
AB
330
1F
100
AcDbEntity
  8
0
  6
Continuous
 62
     7
100
AcDbLine
 10
325.1845735130142
 20
221.3417274815201
 30
0.0
 11
327.1845735130142
 21
221.3417274815201
 31
0.0
  0
LINE
  5
AC
330
1F
100
AcDbEntity
  8
0
  6
Continuous
 62
     7
100
AcDbLine
 10
327.1845735130142
 20
221.3417274815201
 30
0.0
 11
328.1845735130142
 21
221.3417274815201
 31
0.0
  0
LINE
  5
AD
330
1F
100
AcDbEntity
  8
0
  6
Continuous
 62
     7
100
AcDbLine
 10
328.1845735130142
 20
245.3417274815201
 30
0.0
 11
328.1845735130142
 21
221.3417274815201
 31
0.0
  0
LINE
  5
AE
330
1F
100
AcDbEntity
  8
0
  6
Continuous
 62
     7
100
AcDbLine
 10
261.1845735130142
 20
241.3417274815201
 30
0.0
 11
261.1845735130142
 21
240.5917274815201
 31
0.0
  0
LINE
  5
AF
330
1F
100
AcDbEntity
  8
0
  6
Continuous
 62
     7
100
AcDbLine
 10
261.1845735130142
 20
245.3417274815201
 30
0.0
 11
261.1845735130142
 21
244.3417274815201
 31
0.0
  0
LINE
  5
B0
330
1F
100
AcDbEntity
  8
0
  6
Continuous
 62
     7
100
AcDbLine
 10
264.1845735130142
 20
245.3417274815201
 30
0.0
 11
270.1845735130142
 21
245.3417274815201
 31
0.0
  0
LINE
  5
B1
330
1F
100
AcDbEntity
  8
0
  6
Continuous
 62
     7
100
AcDbLine
 10
262.1845735130142
 20
245.3417274815201
 30
0.0
 11
264.1845735130142
 21
245.3417274815201
 31
0.0
  0
LINE
  5
B2
330
1F
100
AcDbEntity
  8
0
  6
Continuous
 62
     7
100
AcDbLine
 10
270.1845735130142
 20
245.3417274815201
 30
0.0
 11
273.1845735130142
 21
245.3417274815201
 31
0.0
  0
LINE
  5
B3
330
1F
100
AcDbEntity
  8
0
  6
Continuous
 62
     7
100
AcDbLine
 10
261.1845735130142
 20
245.3417274815201
 30
0.0
 11
262.1845735130142
 21
245.3417274815201
 31
0.0
  0
LINE
  5
B4
330
1F
100
AcDbEntity
  8
0
  6
Continuous
 62
     7
100
AcDbLine
 10
261.1845735130142
 20
240.5917274815201
 30
0.0
 11
261.1845735130142
 21
226.0917274815201
 31
0.0
  0
LINE
  5
B5
330
1F
100
AcDbEntity
  8
0
  6
Continuous
 62
     7
100
AcDbLine
 10
261.1845735130142
 20
221.3417274815201
 30
0.0
 11
262.1845735130142
 21
221.3417274815201
 31
0.0
  0
LINE
  5
B6
330
1F
100
AcDbEntity
  8
0
  6
Continuous
 62
     7
100
AcDbLine
 10
261.1845735130142
 20
225.0917274815201
 30
0.0
 11
261.1845735130142
 21
222.3417274815201
 31
0.0
  0
LINE
  5
B7
330
1F
100
AcDbEntity
  8
0
  6
Continuous
 62
     7
100
AcDbLine
 10
261.1845735130142
 20
225.3417274815201
 30
0.0
 11
261.1845735130142
 21
225.0917274815201
 31
0.0
  0
LINE
  5
B8
330
1F
100
AcDbEntity
  8
0
  6
Continuous
 62
     7
100
AcDbLine
 10
261.1845735130142
 20
226.0917274815201
 30
0.0
 11
261.1845735130142
 21
225.3417274815201
 31
0.0
  0
LINE
  5
B9
330
1F
100
AcDbEntity
  8
0
  6
Continuous
 62
     7
100
AcDbLine
 10
264.1845735130142
 20
221.3417274815201
 30
0.0
 11
270.1845735130142
 21
221.3417274815201
 31
0.0
  0
LINE
  5
BA
330
1F
100
AcDbEntity
  8
0
  6
Continuous
 62
     7
100
AcDbLine
 10
262.1845735130142
 20
221.3417274815201
 30
0.0
 11
264.1845735130142
 21
221.3417274815201
 31
0.0
  0
LINE
  5
BB
330
1F
100
AcDbEntity
  8
0
  6
Continuous
 62
     7
100
AcDbLine
 10
270.1845735130142
 20
221.3417274815201
 30
0.0
 11
273.1845735130142
 21
221.3417274815201
 31
0.0
  0
LINE
  5
BC
330
1F
100
AcDbEntity
  8
0
  6
Continuous
 62
     7
100
AcDbLine
 10
261.1845735130142
 20
222.3417274815201
 30
0.0
 11
261.1845735130142
 21
221.3417274815201
 31
0.0
  0
LINE
  5
BD
330
1F
100
AcDbEntity
  8
0
  6
Continuous
 62
     7
100
AcDbLine
 10
273.1845735130142
 20
221.3417274815201
 30
0.0
 11
316.1845735130142
 21
221.3417274815201
 31
0.0
  0
LINE
  5
BE
330
1F
100
AcDbEntity
  8
0
  6
Continuous
 62
     7
100
AcDbLine
 10
316.1845735130142
 20
246.3417274815201
 30
0.0
 11
327.1845735130142
 21
246.3417274815201
 31
0.0
  0
LINE
  5
BF
330
1F
100
AcDbEntity
  8
0
  6
Continuous
 62
     7
100
AcDbLine
 10
327.1845735130142
 20
246.3417274815201
 30
0.0
 11
327.1845735130142
 21
245.3417274815201
 31
0.0
  0
LINE
  5
C0
330
1F
100
AcDbEntity
  8
0
  6
Continuous
 62
     7
100
AcDbLine
 10
319.1845735130142
 20
245.3417274815201
 30
0.0
 11
325.1845735130142
 21
245.3417274815201
 31
0.0
  0
LINE
  5
C1
330
1F
100
AcDbEntity
  8
0
  6
Continuous
 62
     7
100
AcDbLine
 10
325.1845735130142
 20
245.3417274815201
 30
0.0
 11
327.1845735130142
 21
245.3417274815201
 31
0.0
  0
LINE
  5
C2
330
1F
100
AcDbEntity
  8
0
  6
Continuous
 62
     7
100
AcDbLine
 10
316.1845735130142
 20
245.3417274815201
 30
0.0
 11
319.1845735130142
 21
245.3417274815201
 31
0.0
  0
LINE
  5
C3
330
1F
100
AcDbEntity
  8
0
  6
Continuous
 62
     7
100
AcDbLine
 10
273.1845735130142
 20
246.3417274815201
 30
0.0
 11
316.1845735130142
 21
246.3417274815201
 31
0.0
  0
LINE
  5
C4
330
1F
100
AcDbEntity
  8
0
  6
Continuous
 62
     7
100
AcDbLine
 10
273.1845735130142
 20
245.3417274815201
 30
0.0
 11
316.1845735130142
 21
245.3417274815201
 31
0.0
  0
LINE
  5
C5
330
1F
100
AcDbEntity
  8
0
  6
Continuous
 62
     7
100
AcDbLine
 10
319.1845735130142
 20
221.3417274815201
 30
0.0
 11
325.1845735130142
 21
221.3417274815201
 31
0.0
  0
LINE
  5
C6
330
1F
100
AcDbEntity
  8
0
  6
Continuous
 62
     7
100
AcDbLine
 10
316.1845735130142
 20
221.3417274815201
 30
0.0
 11
319.1845735130142
 21
221.3417274815201
 31
0.0
  0
LINE
  5
C7
330
1F
100
AcDbEntity
  8
0
  6
Continuous
 62
     7
100
AcDbLine
 10
325.1845735130142
 20
221.3417274815201
 30
0.0
 11
327.1845735130142
 21
221.3417274815201
 31
0.0
  0
LINE
  5
C8
330
1F
100
AcDbEntity
  8
0
  6
Continuous
 62
     7
100
AcDbLine
 10
327.1845735130142
 20
221.3417274815201
 30
0.0
 11
327.1845735130142
 21
220.3417274815201
 31
0.0
  0
LINE
  5
C9
330
1F
100
AcDbEntity
  8
0
  6
Continuous
 62
     7
100
AcDbLine
 10
273.1845735130142
 20
220.3417274815201
 30
0.0
 11
316.1845735130142
 21
220.3417274815201
 31
0.0
  0
LINE
  5
CA
330
1F
100
AcDbEntity
  8
0
  6
Continuous
 62
     7
100
AcDbLine
 10
316.1845735130142
 20
220.3417274815201
 30
0.0
 11
327.1845735130142
 21
220.3417274815201
 31
0.0
  0
LINE
  5
CB
330
1F
100
AcDbEntity
  8
0
  6
Continuous
 62
     7
100
AcDbLine
 10
262.1845735130142
 20
246.3417274815201
 30
0.0
 11
273.1845735130142
 21
246.3417274815201
 31
0.0
  0
LINE
  5
CC
330
1F
100
AcDbEntity
  8
0
  6
Continuous
 62
     7
100
AcDbLine
 10
262.1845735130142
 20
246.3417274815201
 30
0.0
 11
262.1845735130142
 21
245.3417274815201
 31
0.0
  0
LINE
  5
CD
330
1F
100
AcDbEntity
  8
0
  6
Continuous
 62
     7
100
AcDbLine
 10
264.1845735130142
 20
245.3417274815201
 30
0.0
 11
270.1845735130142
 21
245.3417274815201
 31
0.0
  0
LINE
  5
CE
330
1F
100
AcDbEntity
  8
0
  6
Continuous
 62
     7
100
AcDbLine
 10
262.1845735130142
 20
245.3417274815201
 30
0.0
 11
264.1845735130142
 21
245.3417274815201
 31
0.0
  0
LINE
  5
CF
330
1F
100
AcDbEntity
  8
0
  6
Continuous
 62
     7
100
AcDbLine
 10
270.1845735130142
 20
245.3417274815201
 30
0.0
 11
273.1845735130142
 21
245.3417274815201
 31
0.0
  0
LINE
  5
D0
330
1F
100
AcDbEntity
  8
0
  6
Continuous
 62
     7
100
AcDbLine
 10
264.1845735130142
 20
221.3417274815201
 30
0.0
 11
270.1845735130142
 21
221.3417274815201
 31
0.0
  0
LINE
  5
D1
330
1F
100
AcDbEntity
  8
0
  6
Continuous
 62
     7
100
AcDbLine
 10
262.1845735130142
 20
221.3417274815201
 30
0.0
 11
264.1845735130142
 21
221.3417274815201
 31
0.0
  0
LINE
  5
D2
330
1F
100
AcDbEntity
  8
0
  6
Continuous
 62
     7
100
AcDbLine
 10
270.1845735130142
 20
221.3417274815201
 30
0.0
 11
273.1845735130142
 21
221.3417274815201
 31
0.0
  0
LINE
  5
D3
330
1F
100
AcDbEntity
  8
0
  6
Continuous
 62
     7
100
AcDbLine
 10
262.1845735130142
 20
221.3417274815201
 30
0.0
 11
262.1845735130142
 21
220.3417274815201
 31
0.0
  0
LINE
  5
D4
330
1F
100
AcDbEntity
  8
0
  6
Continuous
 62
     7
100
AcDbLine
 10
262.1845735130142
 20
220.3417274815201
 30
0.0
 11
273.1845735130142
 21
220.3417274815201
 31
0.0
  0
LINE
  5
D5
330
1F
100
AcDbEntity
  8
0
  6
Continuous
 62
     7
100
AcDbLine
 10
234.6845735127951
 20
263.1000452102519
 30
0.0
 11
234.684573512795
 21
254.8746991791158
 31
0.0
  0
LINE
  5
D6
330
1F
100
AcDbEntity
  8
0
  6
Continuous
 62
     7
100
AcDbLine
 10
354.6845735127949
 20
263.1000452102519
 30
0.0
 11
354.6845735127951
 21
254.8746991789298
 31
0.0
  0
LINE
  5
D7
330
1F
100
AcDbEntity
  8
0
  6
Continuous
 62
     7
100
AcDbLine
 10
348.4714606727192
 20
264.1000452102519
 30
0.0
 11
353.6845735127949
 21
264.1000452102519
 31
0.0
  0
LINE
  5
D8
330
1F
100
AcDbEntity
  8
0
  6
Continuous
 62
     7
100
AcDbLine
 10
240.8976863528702
 20
264.1000452102519
 30
0.0
 11
243.9997271691967
 21
264.1000452102519
 31
0.0
  0
LINE
  5
D9
330
1F
100
AcDbEntity
  8
0
  6
Continuous
 62
     7
100
AcDbLine
 10
243.9997271691967
 20
264.1000452102519
 30
0.0
 11
345.3694198563925
 21
264.1000452102519
 31
0.0
  0
LINE
  5
DA
330
1F
100
AcDbEntity
  8
0
  6
Continuous
 62
     7
100
AcDbLine
 10
345.3694198563925
 20
264.1000452102519
 30
0.0
 11
348.4714606727192
 21
264.1000452102519
 31
0.0
  0
LINE
  5
DB
330
1F
100
AcDbEntity
  8
0
  6
Continuous
 62
     7
100
AcDbLine
 10
235.6845735127951
 20
264.1000452102519
 30
0.0
 11
240.8976863528702
 21
264.1000452102519
 31
0.0
  0
LINE
  5
DC
330
1F
100
AcDbEntity
  8
1
  6
Continuous
 62
     7
100
AcDbLine
 10
89.5425794887158
 20
233.3417274815201
 30
0.0
 11
94.5425794887158
 21
233.3417274815201
 31
0.0
  0
LINE
  5
DD
330
1F
100
AcDbEntity
  8
1
  6
Continuous
 62
     7
100
AcDbLine
 10
114.2274814949288
 20
233.3417274815201
 30
0.0
 11
118.2274814949288
 21
233.3417274815201
 31
0.0
  0
LINE
  5
DE
330
1F
100
AcDbEntity
  8
1
  6
Continuous
 62
     7
100
AcDbLine
 10
92.184586080631
 20
231.3473062151253
 30
0.0
 11
92.184586080631
 21
235.3473062151253
 31
0.0
  0
LINE
  5
DF
330
1F
100
AcDbEntity
  8
1
  6
Continuous
 62
     7
100
AcDbLine
 10
116.184586080631
 20
231.3473062151253
 30
0.0
 11
116.184586080631
 21
235.3473062151253
 31
0.0
  0
LINE
  5
E0
330
1F
100
AcDbEntity
  8
0
  6
Continuous
 62
     7
100
AcDbLine
 10
84.184586080631
 20
149.0404451505935
 30
0.0
 11
84.184586080631
 21
153.3417283217892
 31
0.0
  0
LINE
  5
E1
330
1F
100
AcDbEntity
  8
0
  6
Continuous
 62
     7
100
AcDbLine
 10
86.934586080631
 20
153.3417283217892
 30
0.0
 11
84.184586080631
 21
153.3417283217892
 31
0.0
  0
LINE
  5
E2
330
1F
100
AcDbEntity
  8
0
  6
Continuous
 62
     7
100
AcDbLine
 10
87.184586080631
 20
153.3417283217892
 30
0.0
 11
86.934586080631
 21
153.3417283217892
 31
0.0
  0
LINE
  5
E3
330
1F
100
AcDbEntity
  8
0
  6
Continuous
 62
     7
100
AcDbLine
 10
124.184586080631
 20
153.3417283217892
 30
0.0
 11
121.434586080631
 21
153.3417283217892
 31
0.0
  0
LINE
  5
E4
330
1F
100
AcDbEntity
  8
0
  6
Continuous
 62
     7
100
AcDbLine
 10
121.434586080631
 20
153.3417283217892
 30
0.0
 11
121.184586080631
 21
153.3417283217892
 31
0.0
  0
LINE
  5
E5
330
1F
100
AcDbEntity
  8
0
  6
Continuous
 62
     7
100
AcDbLine
 10
124.184586080631
 20
149.0404432685069
 30
0.0
 11
124.184586080631
 21
153.3417283217892
 31
0.0
  0
LINE
  5
E6
330
1F
100
AcDbEntity
  8
0
  6
Continuous
 62
     7
100
AcDbLine
 10
121.184586080631
 20
153.3417283217892
 30
0.0
 11
118.0493917005281
 21
153.3417283217892
 31
0.0
  0
LINE
  5
E7
330
1F
100
AcDbEntity
  8
0
  6
Continuous
 62
     7
100
AcDbLine
 10
114.3197804607338
 20
153.3417283217892
 30
0.0
 11
91.934586080631
 21
153.3417283217892
 31
0.0
  0
LINE
  5
E8
330
1F
100
AcDbEntity
  8
0
  6
Continuous
 62
     7
100
AcDbLine
 10
116.434586080631
 20
153.3417283217892
 30
0.0
 11
114.3197804607338
 21
153.3417283217892
 31
0.0
  0
LINE
  5
E9
330
1F
100
AcDbEntity
  8
0
  6
Continuous
 62
     7
100
AcDbLine
 10
118.0493917005281
 20
153.3417283217892
 30
0.0
 11
116.434586080631
 21
153.3417283217892
 31
0.0
  0
LINE
  5
EA
330
1F
100
AcDbEntity
  8
0
  6
Continuous
 62
     7
100
AcDbLine
 10
91.934586080631
 20
153.3417283217892
 30
0.0
 11
87.184586080631
 21
153.3417283217892
 31
0.0
  0
LINE
  5
EB
330
1F
100
AcDbEntity
  8
0
  6
Continuous
 62
     7
100
AcDbLine
 10
87.184586080631
 20
153.3417283217892
 30
0.0
 11
86.934586080631
 21
153.3417283217892
 31
0.0
  0
LINE
  5
EC
330
1F
100
AcDbEntity
  8
0
  6
Continuous
 62
     7
100
AcDbLine
 10
121.434586080631
 20
153.3417283217892
 30
0.0
 11
121.184586080631
 21
153.3417283217892
 31
0.0
  0
LINE
  5
ED
330
1F
100
AcDbEntity
  8
0
  6
Continuous
 62
     7
100
AcDbLine
 10
121.184586080631
 20
153.3417283217892
 30
0.0
 11
118.0493917005281
 21
153.3417283217892
 31
0.0
  0
LINE
  5
EE
330
1F
100
AcDbEntity
  8
0
  6
Continuous
 62
     7
100
AcDbLine
 10
114.3197804607338
 20
153.3417283217892
 30
0.0
 11
91.934586080631
 21
153.3417283217892
 31
0.0
  0
LINE
  5
EF
330
1F
100
AcDbEntity
  8
0
  6
Continuous
 62
     7
100
AcDbLine
 10
116.434586080631
 20
153.3417283217892
 30
0.0
 11
114.3197804607338
 21
153.3417283217892
 31
0.0
  0
LINE
  5
F0
330
1F
100
AcDbEntity
  8
0
  6
Continuous
 62
     7
100
AcDbLine
 10
118.0493917005281
 20
153.3417283217892
 30
0.0
 11
116.434586080631
 21
153.3417283217892
 31
0.0
  0
LINE
  5
F1
330
1F
100
AcDbEntity
  8
0
  6
Continuous
 62
     7
100
AcDbLine
 10
91.934586080631
 20
153.3417283217892
 30
0.0
 11
87.184586080631
 21
153.3417283217892
 31
0.0
  0
ARC
  5
F2
330
1F
100
AcDbEntity
  8
0
  6
Continuous
 62
     7
100
AcDbCircle
 10
151.9365445693661
 20
42.08975810793342
 30
0.0
 40
2.420136475925645
100
AcDbArc
 50
-78.64336574316326
 51
-11.35663425683873
  0
ARC
  5
F3
330
1F
100
AcDbEntity
  8
0
  6
Continuous
 62
     7
100
AcDbCircle
 10
-85.81542564470794
 20
89.84172832200954
 30
0.0
 40
244.9201364759256
100
AcDbArc
 50
-11.35663425683823
 51
11.35663425683745
  0
ARC
  5
F4
330
1F
100
AcDbEntity
  8
0
  6
Continuous
 62
     7
100
AcDbCircle
 10
151.9365445693667
 20
137.5936985360825
 30
0.0
 40
2.42013647592564
100
AcDbArc
 50
11.35663425683609
 51
78.64336574316127
  0
ARC
  5
F5
330
1F
100
AcDbEntity
  8
0
  6
Continuous
 62
     7
100
AcDbCircle
 10
294.1845743552921
 20
89.84172832200824
 30
0.0
 40
244.9201364759257
100
AcDbArc
 50
168.6433657431622
 51
-168.6433657431623
  0
ARC
  5
F6
330
1F
100
AcDbEntity
  8
0
  6
Continuous
 62
     7
100
AcDbCircle
 10
56.43260414121741
 20
42.08975810793433
 30
0.0
 40
2.420136475925696
100
AcDbArc
 50
-168.6433657431607
 51
-101.3566342568393
  0
ARC
  5
F7
330
1F
100
AcDbEntity
  8
0
  6
Continuous
 62
     7
100
AcDbCircle
 10
118.1713919198308
 20
103.8285458865458
 30
0.0
 40
1.735516231519237
100
AcDbArc
 50
0.4352049061359
 51
89.56479509390711
  0
ARC
  5
F8
330
1F
100
AcDbEntity
  8
0
  6
Continuous
 62
     7
100
AcDbCircle
 10
118.1713917284489
 20
75.85491094885143
 30
0.0
 40
1.735516424349393
100
AcDbArc
 50
-89.56478882385996
 51
-0.43521117614664
  0
ARC
  5
F9
330
1F
100
AcDbEntity
  8
0
  6
Continuous
 62
     7
100
AcDbCircle
 10
56.43260414121761
 20
137.5936985360829
 30
0.0
 40
2.420136475925512
100
AcDbArc
 50
101.3566342568346
 51
168.6433657431641
  0
ARC
  5
FA
330
1F
100
AcDbEntity
  8
0
  6
Continuous
 62
     7
100
AcDbCircle
 10
104.1845743552913
 20
-100.1582716779918
 30
0.0
 40
244.9201364759257
100
AcDbArc
 50
78.64336574316197
 51
101.3566342568376
  0
ARC
  5
FB
330
1F
100
AcDbEntity
  8
0
  6
Continuous
 62
     7
100
AcDbCircle
 10
104.1845743552939
 20
279.8417283220082
 30
0.0
 40
244.9201364759255
100
AcDbArc
 50
-101.3566342568383
 51
-78.64336574316272
  0
ARC
  5
FC
330
1F
100
AcDbEntity
  8
0
  6
Continuous
 62
     7
100
AcDbCircle
 10
90.19775698213502
 20
75.85491094885133
 30
0.0
 40
1.735516424349294
100
AcDbArc
 50
-179.5647888238567
 51
-90.43521117614054
  0
ARC
  5
FD
330
1F
100
AcDbEntity
  8
0
  6
Continuous
 62
     7
100
AcDbCircle
 10
90.19775679075451
 20
103.8285458865441
 30
0.0
 40
1.735516231522136
100
AcDbArc
 50
90.43520490613892
 51
179.5647950938086
  0
ARC
  5
FE
330
1F
100
AcDbEntity
  8
0
  6
Continuous
 62
     7
100
AcDbCircle
 10
45.18457435529231
 20
263.1000452102519
 30
0.0
 40
1.0
100
AcDbArc
 50
90.0
 51
180.0
  0
ARC
  5
FF
330
1F
100
AcDbEntity
  8
0
  6
Continuous
 62
     7
100
AcDbCircle
 10
45.18503925346812
 20
254.8750593329443
 30
0.0
 40
1.000464982248313
100
AcDbArc
 50
-179.9793731771773
 51
-104.4908433625846
  0
ARC
  5
100
330
1F
100
AcDbEntity
  8
0
  6
Continuous
 62
     7
100
AcDbCircle
 10
163.1845743552924
 20
263.1000452102519
 30
0.0
 40
1.0
100
AcDbArc
 50
0.0
 51
90.0
  0
ARC
  5
101
330
1F
100
AcDbEntity
  8
0
  6
Continuous
 62
     7
100
AcDbCircle
 10
163.184018089385
 20
254.8751301175037
 30
0.0
 40
1.000556358718107
100
AcDbArc
 50
-75.50510527058984
 51
-0.02467834074013
  0
ARC
  5
102
330
1F
100
AcDbEntity
  8
0
  6
Continuous
 62
     7
100
AcDbCircle
 10
235.6851285608613
 20
254.8751291740402
 30
0.0
 40
1.000555140462832
100
AcDbArc
 50
-179.9753767742095
 51
-104.4948400955069
  0
ARC
  5
103
330
1F
100
AcDbEntity
  8
0
  6
Continuous
 62
     7
100
AcDbCircle
 10
353.6840183949917
 20
254.8751292280654
 30
0.0
 40
1.000555210223022
100
AcDbArc
 50
-75.50515681251377
 51
-0.02462632842178
  0
ARC
  5
104
330
1F
100
AcDbEntity
  8
0
  6
Continuous
 62
     7
100
AcDbCircle
 10
353.6845735127949
 20
263.1000452102519
 30
0.0
 40
1.0
100
AcDbArc
 50
0.0
 51
90.0
  0
ARC
  5
105
330
1F
100
AcDbEntity
  8
0
  6
Continuous
 62
     7
100
AcDbCircle
 10
235.6845735127951
 20
263.1000452102519
 30
0.0
 40
1.0
100
AcDbArc
 50
90.0
 51
180.0
  0
ARC
  5
106
330
1F
100
AcDbEntity
  8
0
  6
Continuous
 62
     7
100
AcDbCircle
 10
-85.81542564470794
 20
89.84172832200954
 30
0.0
 40
249.9999999999998
100
AcDbArc
 50
-11.74484124678139
 51
11.74484124678061
  0
ARC
  5
107
330
1F
100
AcDbEntity
  8
0
  6
Continuous
 62
     7
100
AcDbCircle
 10
154.0552062997964
 20
139.7123602665122
 30
0.0
 40
5.000000000000021
100
AcDbArc
 50
11.74484124678166
 51
78.25515875321834
  0
ARC
  5
108
330
1F
100
AcDbEntity
  8
0
  6
Continuous
 62
     7
100
AcDbCircle
 10
294.1845743552921
 20
89.84172832200824
 30
0.0
 40
250.0000000000002
100
AcDbArc
 50
168.255158753219
 51
-168.2551587532192
  0
ARC
  5
109
330
1F
100
AcDbEntity
  8
0
  6
Continuous
 62
     7
100
AcDbCircle
 10
54.3139424107878
 20
139.7123602665126
 30
0.0
 40
4.999999999999982
100
AcDbArc
 50
101.7448412467795
 51
168.2551587532184
  0
ARC
  5
10A
330
1F
100
AcDbEntity
  8
0
  6
Continuous
 62
     7
100
AcDbCircle
 10
104.1845743552939
 20
279.8417283220082
 30
0.0
 40
249.9999999999998
100
AcDbArc
 50
-101.7448412467814
 51
-78.25515875321963
  0
ARC
  5
10B
330
1F
100
AcDbEntity
  8
0
  6
Continuous
 62
     7
100
AcDbCircle
 10
104.1845743552913
 20
-100.1582716779918
 30
0.0
 40
250.0
100
AcDbArc
 50
78.25515875321884
 51
101.7448412467808
  0
ARC
  5
10C
330
1F
100
AcDbEntity
  8
0
  6
Continuous
 62
     7
100
AcDbCircle
 10
154.0552062997957
 20
39.97109637750361
 30
0.0
 40
4.999999999999998
100
AcDbArc
 50
-78.25515875321962
 51
-11.74484124678268
  0
ARC
  5
10D
330
1F
100
AcDbEntity
  8
0
  6
Continuous
 62
     7
100
AcDbCircle
 10
54.3139424107876
 20
39.97109637750452
 30
0.0
 40
4.999999999999975
100
AcDbArc
 50
-168.2551587532205
 51
-101.7448412467806
  0
SPLINE
  5
10E
330
1F
100
AcDbEntity
  8
0
  6
Continuous
 62
     7
100
AcDbSpline
210
0.0
220
0.0
230
1.0
 70
     8
 71
     3
 72
    27
 73
    23
 74
    21
 42
0.0000000001
 43
0.0000000001
 44
0.00000001
 40
0.0
 40
0.0
 40
0.0
 40
0.0
 40
0.1925350961922423
 40
0.3850520880724008
 40
0.5775764342033467
 40
0.769562150213913
 40
1.152519684190016
 40
1.538699325945276
 40
1.927258520376307
 40
2.313906023188048
 40
2.70088847344589
 40
3.089552109920168
 40
3.476572523780592
 40
3.862428046227989
 40
4.250807280763357
 40
4.638745006967191
 40
5.023438502278725
 40
5.409372595672059
 40
5.604633709044087
 40
5.801008721328897
 40
5.997302380668915
 40
6.193596158438386
 40
6.193596158438386
 40
6.193596158438386
 40
6.193596158438386
 10
81.19640837190701
 20
70.78841537309152
 30
0.0
 10
81.20227442518406
 20
70.72450573674078
 30
0.0
 10
81.21400598014594
 20
70.59669247354104
 30
0.0
 10
81.2323135186183
 20
70.40503709321091
 30
0.0
 10
81.24878437649579
 20
70.21340307851898
 30
0.0
 10
81.27886284799207
 20
69.95924147009855
 30
0.0
 10
81.34855856283892
 20
69.64559987198072
 30
0.0
 10
81.47367780584779
 20
69.27982959952632
 30
0.0
 10
81.63713947604765
 20
68.92812422471425
 30
0.0
 10
81.83545277168905
 20
68.59458214950983
 30
0.0
 10
82.06613261991403
 20
68.28252597745833
 30
0.0
 10
82.32621355591763
 20
67.99436483720845
 30
0.0
 10
82.61299194415116
 20
67.733316935765
 30
0.0
 10
82.92388666425663
 20
67.50164875951445
 30
0.0
 10
83.2566450662168
 20
67.30204581034626
 30
0.0
 10
83.60746558841161
 20
67.13698765416775
 30
0.0
 10
83.97295518527234
 20
67.01020713252723
 30
0.0
 10
84.28777217968047
 20
66.93843794972386
 30
0.0
 10
84.54518312443435
 20
66.90705052638027
 30
0.0
 10
84.74042897979126
 20
66.8901481044462
 30
0.0
 10
84.93586423986093
 20
66.87150407025642
 30
0.0
 10
85.06617842218341
 20
66.85953837253055
 30
0.0
 10
85.1313355330002
 20
66.85355552186282
 30
0.0
 11
81.19640837190701
 21
70.78841537309152
 31
0.0
 11
81.2141249195114
 21
70.59669712355138
 31
0.0
 11
81.2320098048672
 21
70.40501268746333
 31
0.0
 11
81.24982613889262
 21
70.21331448169435
 31
0.0
 11
81.27351458642302
 21
70.02279578810843
 31
0.0
 11
81.35510559356187
 21
69.64863087742982
 31
0.0
 11
81.47970969101891
 21
69.28310586514867
 31
0.0
 11
81.64323001233836
 21
68.93062983462677
 31
0.0
 11
81.84077383681726
 21
68.59825545408458
 31
0.0
 11
82.07066899587348
 21
68.28696197093711
 31
0.0
 11
82.33109948843115
 21
67.99845654488142
 31
0.0
 11
82.61731604316564
 21
67.73794764956187
 31
0.0
 11
82.9267880471448
 21
67.50748818901343
 31
0.0
 11
83.25984993536682
 21
67.30771779973549
 31
0.0
 11
83.61103634217615
 21
67.14290339780243
 31
0.0
 11
83.97457399498938
 21
67.01708821460879
 31
0.0
 11
84.3512288023606
 21
66.93296758380106
 31
0.0
 11
84.54491612263055
 21
66.90822643665857
 31
0.0
 11
84.74043039508351
 21
66.88986030704312
 31
0.0
 11
84.93587469873815
 21
66.87161955963386
 31
0.0
 11
85.1313355330002
 21
66.85355552186282
 31
0.0
  0
SPLINE
  5
10F
330
1F
100
AcDbEntity
  8
0
  6
Continuous
 62
     7
100
AcDbSpline
210
0.0
220
0.0
230
1.0
 70
     8
 71
     3
 72
    11
 73
     7
 74
     5
 42
0.0000000001
 43
0.0000000001
 44
0.00000001
 40
0.0
 40
0.0
 40
0.0
 40
0.0
 40
9.5364545821927
 40
19.07286860885157
 40
28.61494587805435
 40
38.15715156363663
 40
38.15715156363663
 40
38.15715156363663
 40
38.15715156363663
 10
81.1964015551346
 20
108.8949671441694
 30
0.0
 10
80.94594890403285
 20
105.7254085102855
 30
0.0
 10
80.44504466692551
 20
99.38630472165094
 30
0.0
 10
80.25300743741354
 20
89.84551545202851
 30
0.0
 10
80.44486590080096
 20
80.30280321725068
 30
0.0
 10
80.94589309108308
 20
73.95989221476557
 30
0.0
 10
81.19640837190701
 20
70.78841537309152
 30
0.0
 11
81.1964015551346
 21
108.8949671441694
 31
0.0
 11
80.53827016438291
 21
99.38124920265298
 31
0.0
 11
80.3169898947888
 21
89.84740278422645
 31
0.0
 11
80.53813777272782
 21
80.30788852890299
 31
0.0
 11
81.19640837190701
 21
70.78841537309152
 31
0.0
  0
SPLINE
  5
110
330
1F
100
AcDbEntity
  8
0
  6
Continuous
 62
     7
100
AcDbSpline
210
0.0
220
0.0
230
1.0
 70
     8
 71
     3
 72
    27
 73
    23
 74
    21
 42
0.0000000001
 43
0.0000000001
 44
0.00000001
 40
0.0
 40
0.0
 40
0.0
 40
0.0
 40
0.1925351005070103
 40
0.3850520967023197
 40
0.5775764473567864
 40
0.7695621681907931
 40
1.152519710834238
 40
1.538699360244101
 40
1.927258564653299
 40
2.31390607860711
 40
2.700888537990653
 40
3.089552184281426
 40
3.47657260880952
 40
3.862428140995396
 40
4.250807385287391
 40
4.638745121757831
 40
5.023438627158939
 40
5.409372730051407
 40
5.604633848174457
 40
5.801008865429542
 40
5.997302529827747
 40
6.193596312655327
 40
6.193596312655327
 40
6.193596312655327
 40
6.193596312655327
 10
85.13126155988502
 20
112.8298943195102
 30
0.0
 10
85.0673519220964
 20
112.8240282661683
 30
0.0
 10
84.9395386560208
 20
112.8122967110766
 30
0.0
 10
84.74788327133598
 20
112.7939891719955
 30
0.0
 10
84.5562492520109
 20
112.777518315076
 30
0.0
 10
84.30208763657325
 20
112.7474398526195
 30
0.0
 10
83.98844602827991
 20
112.6777441506511
 30
0.0
 10
83.62267574343565
 20
112.5526249162702
 30
0.0
 10
83.27097035499091
 20
112.3891632526407
 30
0.0
 10
82.93742826550907
 20
112.1908499611374
 30
0.0
 10
82.62537207986963
 20
111.9601701143284
 30
0.0
 10
82.33721092670389
 20
111.7000891778404
 30
0.0
 10
82.0761630130255
 20
111.4133107870509
 30
0.0
 10
81.84449482569136
 20
111.1024160626091
 30
0.0
 10
81.64489186666061
 20
110.7696576549489
 30
0.0
 10
81.47983370201672
 20
110.4188371255767
 30
0.0
 10
81.35305317379418
 20
110.053347520431
 30
0.0
 10
81.28128398653706
 20
109.7385305186576
 30
0.0
 10
81.24989656115268
 20
109.4811195676764
 30
0.0
 10
81.23299413863533
 20
109.2858737074229
 30
0.0
 10
81.21435010399969
 20
109.0904384423449
 30
0.0
 10
81.20238440595952
 20
108.9601242566649
 30
0.0
 10
81.1964015551346
 20
108.8949671441694
 30
0.0
 11
85.13126155988502
 21
112.8298943195102
 31
0.0
 11
84.93954330603599
 21
112.8121777716432
 31
0.0
 11
84.7478588656393
 21
112.7942928860167
 31
0.0
 11
84.5561606551718
 21
112.7764765536646
 31
0.0
 11
84.36564195599544
 21
112.7527881120041
 31
0.0
 11
83.99147703343479
 21
112.6711971186734
 31
0.0
 11
83.62595200970631
 21
112.5465930310735
 31
0.0
 11
83.27347596520909
 21
112.3830727161682
 31
0.0
 11
82.9411015696336
 21
112.1855288951753
 31
0.0
 11
82.62980807362175
 21
111.955633738177
 31
0.0
 11
82.34130263471005
 21
111.6952032452112
 31
0.0
 11
82.08079372681122
 21
111.4089866875014
 31
0.0
 11
81.85033425539275
 21
111.0995146794749
 31
0.0
 11
81.65056385637018
 21
110.7664527857206
 31
0.0
 11
81.48574944592872
 21
110.4152663715633
 31
0.0
 11
81.3599342560206
 21
110.0517287103972
 31
0.0
 11
81.2758136202391
 21
109.6750738944036
 31
0.0
 11
81.25107247160075
 21
109.4813865695351
 31
0.0
 11
81.23270634125934
 21
109.2858722921582
 31
0.0
 11
81.21446559337333
 21
109.0904279834679
 31
0.0
 11
81.1964015551346
 21
108.8949671441694
 31
0.0
  0
SPLINE
  5
111
330
1F
100
AcDbEntity
  8
0
  6
Continuous
 62
     7
100
AcDbSpline
210
0.0
220
0.0
230
1.0
 70
     8
 71
     3
 72
    27
 73
    23
 74
    21
 42
0.0000000001
 43
0.0000000001
 44
0.00000001
 40
0.0
 40
0.0
 40
0.0
 40
0.0
 40
0.1925350961947178
 40
0.3850520880773195
 40
0.5775764342107087
 40
0.7695621502236633
 40
1.152519684204814
 40
1.538699325965404
 40
1.927258520401338
 40
2.313906023217746
 40
2.70088847348087
 40
3.08955210996023
 40
3.476572523825187
 40
3.862428046277596
 40
4.250807280818035
 40
4.63874500702651
 40
5.023438502342752
 40
5.409372595741702
 40
5.604633709116864
 40
5.801008721404426
 40
5.997302380746937
 40
6.193596158518881
 40
6.193596158518881
 40
6.193596158518881
 40
6.193596158518881
 10
123.2378873042091
 20
66.85356233862332
 30
0.0
 10
123.3017969405607
 20
66.85942839190045
 30
0.0
 10
123.4296102037621
 20
66.87115994686255
 30
0.0
 10
123.6212655840946
 20
66.88946748533519
 30
0.0
 10
123.8128995987889
 20
66.90593834321281
 30
0.0
 10
124.0670612072126
 20
66.9360168147099
 30
0.0
 10
124.3807028053343
 20
67.00571252955925
 30
0.0
 10
124.7464730777928
 20
67.1308317725716
 30
0.0
 10
125.0981784526085
 20
67.29429344277561
 30
0.0
 10
125.4317205278157
 20
67.49260673842208
 30
0.0
 10
125.7437766998693
 20
67.72328658665266
 30
0.0
 10
126.0319378401204
 20
67.98336752266233
 30
0.0
 10
126.2929857415641
 20
68.27014591090234
 30
0.0
 10
126.5246539178138
 20
68.58104063101453
 30
0.0
 10
126.7242568669799
 20
68.91379903298177
 30
0.0
 10
126.8893150231551
 20
69.26461955518342
 30
0.0
 10
127.0160955447917
 20
69.63010915205086
 30
0.0
 10
127.0878647275887
 20
69.94492614646515
 30
0.0
 10
127.1192521509275
 20
70.20233709122341
 30
0.0
 10
127.1361545728609
 20
70.39758294658313
 30
0.0
 10
127.1547986070511
 20
70.59301820665536
 30
0.0
 10
127.166764304777
 20
70.7233323889795
 30
0.0
 10
127.1727471554448
 20
70.78848949979712
 30
0.0
 11
123.2378873042091
 21
66.85356233862332
 31
0.0
 11
123.4296055537517
 21
66.87127888622801
 31
0.0
 11
123.6212899898422
 21
66.88916377158407
 31
0.0
 11
123.8129881956136
 21
66.90698010560973
 31
0.0
 11
124.0035068892018
 21
66.93066855314075
 31
0.0
 11
124.377671799885
 21
67.01225956028225
 31
0.0
 11
124.7431968121706
 21
67.13686365774288
 31
0.0
 11
125.0956728426959
 21
67.30038397906654
 31
0.0
 11
125.4280472232407
 21
67.49792780355027
 31
0.0
 11
125.7393407063905
 21
67.72782296261224
 31
0.0
 11
126.0278461324475
 21
67.98825345517608
 31
0.0
 11
126.288355027767
 21
68.27447000991674
 31
0.0
 11
126.5188144883146
 21
68.58394201390271
 31
0.0
 11
126.7185848775905
 21
68.91700390213187
 31
0.0
 11
126.8833992795203
 21
69.26819030894788
 31
0.0
 11
127.0092144627094
 21
69.63172796176767
 31
0.0
 11
127.0933350935103
 21
70.00838276914615
 31
0.0
 11
127.1180762406497
 21
70.20207008941966
 31
0.0
 11
127.1364423702642
 21
70.39758436187547
 31
0.0
 11
127.1546831176736
 21
70.5930286655326
 31
0.0
 11
127.1727471554448
 21
70.78848949979712
 31
0.0
  0
SPLINE
  5
112
330
1F
100
AcDbEntity
  8
0
  6
Continuous
 62
     7
100
AcDbSpline
210
0.0
220
0.0
230
1.0
 70
     8
 71
     3
 72
    27
 73
    23
 74
    21
 42
0.0000000001
 43
0.0000000001
 44
0.00000001
 40
0.0
 40
0.0
 40
0.0
 40
0.0
 40
0.1925351005031056
 40
0.3850520966945126
 40
0.5775764473450187
 40
0.769562168175194
 40
1.152519710810853
 40
1.538699360212581
 40
1.927258564613969
 40
2.313906078560265
 40
2.700888537935665
 40
3.089552184218616
 40
3.476572608739288
 40
3.862428140917204
 40
4.250807385201194
 40
4.638745121664265
 40
5.023438627057826
 40
5.409372729941354
 40
5.604633848059497
 40
5.801008865310274
 40
5.99730252970457
 40
6.193596312528348
 40
6.193596312528348
 40
6.193596312528348
 40
6.193596312528348
 10
127.1727403527938
 20
108.8950411174153
 30
0.0
 10
127.166874299452
 20
108.9589507552026
 30
0.0
 10
127.1551427443605
 20
109.0867640212756
 30
0.0
 10
127.1368352052798
 20
109.2784194059566
 30
0.0
 10
127.1203643483608
 20
109.4700534252777
 30
0.0
 10
127.0902858859059
 20
109.7242150407103
 30
0.0
 10
127.0205901839409
 20
110.0378566489977
 30
0.0
 10
126.8954709495652
 20
110.4036269338353
 30
0.0
 10
126.7320092859423
 20
110.7553323222744
 30
0.0
 10
126.5336959944469
 20
111.0888744117518
 30
0.0
 10
126.3030161476465
 20
111.4009305973878
 30
0.0
 10
126.0429352111681
 20
111.6890917505517
 30
0.0
 10
125.7561568203887
 20
111.9501396642298
 30
0.0
 10
125.4452620959577
 20
112.1818078515651
 30
0.0
 10
125.1125036883084
 20
112.3814108105989
 30
0.0
 10
124.7616831589472
 20
112.546468975248
 30
0.0
 10
124.3961935538122
 20
112.6732495034769
 30
0.0
 10
124.0813765520484
 20
112.7450186907437
 30
0.0
 10
123.8239656010741
 20
112.7764061161356
 30
0.0
 10
123.6287197408251
 20
112.793308538654
 30
0.0
 10
123.4332844757512
 20
112.8119525732891
 30
0.0
 10
123.3029702900737
 20
112.8239182713292
 30
0.0
 10
123.2378131775794
 20
112.829901122154
 30
0.0
 11
127.1727403527938
 21
108.8950411174153
 31
0.0
 11
127.1550238049271
 21
109.0867593712604
 31
0.0
 11
127.137138919301
 21
109.2784438116532
 31
0.0
 11
127.1193225869495
 21
109.4701420221168
 31
0.0
 11
127.0956341452901
 21
109.6606607212895
 31
0.0
 11
127.0140431519633
 21
110.034825643843
 31
0.0
 11
126.8894390643687
 21
110.4003506675647
 31
0.0
 11
126.7259187494701
 21
110.7528267120564
 31
0.0
 11
126.5283749284848
 21
111.0852011076277
 31
0.0
 11
126.2984797714954
 21
111.3964946036359
 31
0.0
 11
126.0380492785391
 21
111.6850000425457
 31
0.0
 11
125.7518327208392
 21
111.9455089504444
 31
0.0
 11
125.4423607128234
 21
112.175968421864
 31
0.0
 11
125.1092988190803
 21
112.3757388208895
 31
0.0
 11
124.7581124049336
 21
112.5405532313362
 31
0.0
 11
124.3945747437779
 21
112.6663684212515
 31
0.0
 11
124.0179199277959
 21
112.7504890570435
 31
0.0
 11
123.8242326029329
 21
112.7752302056867
 31
0.0
 11
123.6287183255605
 21
112.7935963360297
 31
0.0
 11
123.4332740168741
 21
112.8118370839155
 31
0.0
 11
123.2378131775794
 21
112.829901122154
 31
0.0
  0
SPLINE
  5
113
330
1F
100
AcDbEntity
  8
0
  6
Continuous
 62
     7
100
AcDbSpline
210
0.0
220
0.0
230
1.0
 70
     8
 71
     3
 72
    11
 73
     7
 74
     5
 42
0.0000000001
 43
0.0000000001
 44
0.00000001
 40
0.0
 40
0.0
 40
0.0
 40
0.0
 40
9.536454543709182
 40
19.07286853188528
 40
28.61494576254076
 40
38.15715140957106
 40
38.15715140957106
 40
38.15715140957106
 40
38.15715140957106
 10
127.1727471554448
 20
70.78848949979712
 30
0.0
 10
127.4231998057058
 20
73.95804812087225
 30
0.0
 10
127.9241040411318
 20
80.29715188388946
 30
0.0
 10
128.1161412726348
 20
89.83794111490441
 30
0.0
 10
127.9242828144446
 20
99.3806533112004
 30
0.0
 10
127.423255630466
 20
105.7235642883899
 30
0.0
 10
127.1727403527938
 20
108.8950411174153
 30
0.0
 11
127.1727471554448
 21
70.78848949979712
 31
0.0
 11
127.8308785444266
 21
80.30220740286049
 31
0.0
 11
128.0521588157931
 21
89.83605378275274
 31
0.0
 11
127.8310109432271
 21
99.37556799964311
 31
0.0
 11
127.1727403527938
 21
108.8950411174153
 31
0.0
  0
SPLINE
  5
114
330
1F
100
AcDbEntity
  8
0
  6
Continuous
 62
     7
100
AcDbSpline
210
0.0
220
0.0
230
1.0
 70
     8
 71
     3
 72
    11
 73
     7
 74
     5
 42
0.0000000001
 43
0.0000000001
 44
0.00000001
 40
0.0
 40
0.0
 40
0.0
 40
0.0
 40
9.539135323328242
 40
19.07814801361563
 40
28.61758567813975
 40
38.15714529625448
 40
38.15714529625448
 40
38.15714529625448
 40
38.15714529625448
 10
85.1313355330002
 20
66.85355552186282
 30
0.0
 10
88.30179041586834
 20
66.60311291693904
 30
0.0
 10
94.64265942292893
 20
66.1022309267269
 30
0.0
 10
104.18432824155
 20
65.91010306830873
 30
0.0
 10
113.7261388551334
 20
66.10222114523701
 30
0.0
 10
120.0672909768982
 20
66.60311420691946
 30
0.0
 10
123.2378873042091
 20
66.85356233862332
 30
0.0
 11
85.1313355330002
 21
66.85355552186282
 31
0.0
 11
94.64774092263347
 21
66.19542849998383
 31
0.0
 11
104.1841866011837
 21
65.97414378400597
 31
0.0
 11
113.7210575150644
 21
66.19542217724864
 31
0.0
 11
123.2378873042091
 21
66.85356233862332
 31
0.0
  0
SPLINE
  5
115
330
1F
100
AcDbEntity
  8
0
  6
Continuous
 62
     7
100
AcDbSpline
210
0.0
220
0.0
230
1.0
 70
     8
 71
     3
 72
    11
 73
     7
 74
     5
 42
0.0000000001
 43
0.0000000001
 44
0.00000001
 40
0.0
 40
0.0
 40
0.0
 40
0.0
 40
9.539135284799222
 40
19.07814793655941
 40
28.61758556255374
 40
38.15714514213398
 40
38.15714514213398
 40
38.15714514213398
 40
38.15714514213398
 10
123.2378131775794
 20
112.829901122154
 30
0.0
 10
120.0673583075352
 20
113.0803437262364
 30
0.0
 10
113.7264893261219
 20
113.5812257147659
 30
0.0
 10
104.1848205461324
 20
113.7733535751721
 30
0.0
 10
94.64300997103385
 20
113.5812355034444
 30
0.0
 10
88.30185787455314
 20
113.0803424480633
 30
0.0
 10
85.13126155988502
 20
112.8298943195102
 30
0.0
 11
123.2378131775794
 21
112.829901122154
 31
0.0
 11
113.7214078264446
 21
113.488028142261
 31
0.0
 11
104.1849621864731
 21
113.7093128600102
 31
0.0
 11
94.6480913110078
 21
113.4880344721413
 31
0.0
 11
85.13126155988502
 21
112.8298943195102
 31
0.0
  0
SPLINE
  5
116
330
1F
100
AcDbEntity
  8
0
  6
Continuous
 62
     7
100
AcDbSpline
210
0.0
220
0.0
230
1.0
 70
    24
 71
     3
 72
    11
 73
     7
 74
     5
 42
0.0000000001
 43
0.0000000001
 44
0.00000001
 40
0.0
 40
0.0
 40
0.0
 40
0.0
 40
7.616553247449481
 40
15.23310649489885
 40
22.7534059817067
 40
30.27370546851455
 40
30.27370546851455
 40
30.27370546851455
 40
30.27370546851455
 10
163.4344510799332
 20
253.9064215213736
 30
0.0
 10
160.9761382933886
 20
253.2720217558176
 30
0.0
 10
156.0595127202996
 20
252.0032222247058
 30
0.0
 10
148.7156411493893
 20
250.1080401191741
 30
0.0
 10
141.4028363672022
 20
248.220875204779
 30
0.0
 10
136.5483443715597
 20
246.9681100559397
 30
0.0
 10
134.1210983737385
 20
246.3417274815201
 30
0.0
 11
163.4344510799332
 21
253.9064215213736
 31
0.0
 11
156.0595127202996
 21
252.0032222247057
 31
0.0
 11
148.684574360666
 21
250.1000229280378
 31
0.0
 11
141.4028363672022
 21
248.220875204779
 31
0.0
 11
134.1210983737385
 21
246.3417274815201
 31
0.0
  0
SPLINE
  5
117
330
1F
100
AcDbEntity
  8
0
  6
Continuous
 62
     7
100
AcDbSpline
210
0.0
220
0.0
230
1.0
 70
     8
 71
     3
 72
    11
 73
     7
 74
     5
 42
0.0000000001
 43
0.0000000001
 44
0.00000001
 40
0.0
 40
0.0
 40
0.0
 40
0.0
 40
7.520299486807774
 40
15.0405989736156
 40
22.65715222106505
 40
30.27370546851449
 40
30.27370546851449
 40
30.27370546851449
 40
30.27370546851449
 10
74.24805033684612
 20
246.3417274815201
 30
0.0
 10
71.82080433903266
 20
246.9681100559698
 30
0.0
 10
66.96631234340575
 20
248.2208752048693
 30
0.0
 10
59.65350756110172
 20
250.1080401188111
 30
0.0
 10
52.3096359906414
 20
252.0032222260863
 30
0.0
 10
47.39301041376934
 20
253.2720217425392
 30
0.0
 10
44.93469762533331
 20
253.9064215007656
 30
0.0
 11
74.24805033684612
 21
246.3417274815201
 31
0.0
 11
66.96631234338246
 21
248.220875204779
 31
0.0
 11
59.68457434991871
 21
250.1000229280378
 31
0.0
 11
52.30963598962033
 21
252.0032222221298
 31
0.0
 11
44.93469762533331
 21
253.9064215007656
 31
0.0
  0
SPLINE
  5
118
330
1F
100
AcDbEntity
  8
0
  6
Continuous
 62
     7
100
AcDbSpline
210
0.0
220
0.0
230
1.0
 70
    24
 71
     3
 72
    11
 73
     7
 74
     5
 42
0.0000000001
 43
0.0000000001
 44
0.00000001
 40
0.0
 40
0.0
 40
0.0
 40
0.0
 40
7.616553244665261
 40
15.2331064893305
 40
22.75340597335424
 40
30.27370545737798
 40
30.27370545737798
 40
30.27370545737798
 40
30.27370545737798
 10
353.9344502266524
 20
253.9064215185908
 30
0.0
 10
351.4761374410065
 20
253.2720217532668
 30
0.0
 10
346.5595118697146
 20
252.0032222226187
 30
0.0
 10
339.2156403015002
 20
250.1080401177827
 30
0.0
 10
331.902835522009
 20
248.2208752040833
 30
0.0
 10
327.0483435281637
 20
246.9681100557078
 30
0.0
 10
324.621097531241
 20
246.3417274815201
 30
0.0
 11
353.9344502266524
 21
253.9064215185908
 31
0.0
 11
346.5595118697146
 21
252.0032222226187
 31
0.0
 11
339.1845735127769
 21
250.1000229266464
 31
0.0
 11
331.902835522009
 21
248.2208752040833
 31
0.0
 11
324.621097531241
 21
246.3417274815201
 31
0.0
  0
SPLINE
  5
119
330
1F
100
AcDbEntity
  8
0
  6
Continuous
 62
     7
100
AcDbSpline
210
0.0
220
0.0
230
1.0
 70
    24
 71
     3
 72
    11
 73
     7
 74
     5
 42
0.0000000001
 43
0.0000000001
 44
0.00000001
 40
0.0
 40
0.0
 40
0.0
 40
0.0
 40
7.520299484023645
 40
15.04059896804734
 40
22.65715221271255
 40
30.27370545737773
 40
30.27370545737773
 40
30.27370545737773
 40
30.27370545737773
 10
264.7480494943488
 20
246.3417274815201
 30
0.0
 10
262.3208034974261
 20
246.9681100557078
 30
0.0
 10
257.4663115035809
 20
248.2208752040834
 30
0.0
 10
250.1535067240897
 20
250.1080401177827
 30
0.0
 10
242.8096351558753
 20
252.0032222226187
 30
0.0
 10
237.8930095845835
 20
253.2720217532668
 30
0.0
 10
235.4346967989376
 20
253.9064215185908
 30
0.0
 11
264.7480494943488
 21
246.3417274815201
 31
0.0
 11
257.4663115035809
 21
248.2208752040833
 31
0.0
 11
250.184573512813
 21
250.1000229266464
 31
0.0
 11
242.8096351558753
 21
252.0032222226186
 31
0.0
 11
235.4346967989376
 21
253.9064215185908
 31
0.0
  0
TEXT
  5
11B
330
1F
100
AcDbEntity
  8
1
 62
     4
100
AcDbText
 10
217.4464720331717
 20
87.66425563605033
 30
0.0
 40
2.5
  1
053000100
 41
0.9
  7
CONVERTER_11
100
AcDbText
  0
DIMENSION
  5
126
330
1F
100
AcDbEntity
  8
1
100
AcDbDimension
  2
*D1
 10
92.184586080631
 20
205.8689609301413
 30
0.0
 11
104.184586080631
 21
208.1189609301413
 31
0.0
 70
    32
  1
<>
 71
     5
 42
-1.0
 53
0.00013888888889
  3
ME10_DIM_10
100
AcDbAlignedDimension
 13
116.184586080631
 23
231.3473062151253
 33
0.0
 14
92.184586080631
 24
231.3473062151253
 34
0.0
100
AcDbRotatedDimension
  0
DIMENSION
  5
131
330
1F
100
AcDbEntity
  8
1
100
AcDbDimension
  2
*D2
 10
231.1845735130142
 20
195.3723335346826
 30
0.0
 11
290.5778075052904
 21
197.7473335346826
 31
0.0
 70
    32
  1
<>
 71
     5
 42
-1.0
 53
0.00013888888889
  3
ME10_DIM_11
100
AcDbAlignedDimension
 13
354.6845735127951
 23
254.8746991789298
 33
0.0
 14
231.1845735130142
 24
222.3417274815201
 34
0.0
100
AcDbRotatedDimension
  0
DIMENSION
  5
13C
330
1F
100
AcDbEntity
  8
1
100
AcDbDimension
  2
*D3
 10
164.1845743552924
 20
194.5604426662794
 30
0.0
 11
104.184586080631
 21
196.8104426662794
 31
0.0
 70
    32
  1
<>
 71
     5
 42
-1.0
 53
0.00013888888889
  3
ME10_DIM_12
100
AcDbAlignedDimension
 13
44.18457433605209
 23
254.8746991595832
 33
0.0
 14
164.1845743552924
 24
254.8746991595833
 34
0.0
100
AcDbRotatedDimension
  0
DIMENSION
  5
147
330
1F
100
AcDbEntity
  8
1
100
AcDbDimension
  2
*D4
 10
179.0154880867062
 20
220.3417274815201
 30
0.0
 11
176.6404880867062
 21
239.7519977714223
 31
0.0
 70
    32
  1
<>
 71
     5
 42
-1.0
 53
90.0
  3
ME10_DIM_13
100
AcDbAlignedDimension
 13
163.1845743552924
 23
264.1000452102519
 33
0.0
 14
136.6845860806314
 24
220.3417274815201
 34
0.0
 50
90.0
100
AcDbRotatedDimension
  0
ENDSEC
  0
SECTION
  2
OBJECTS
  0
DICTIONARY
  5
C
330
0
100
AcDbDictionary
281
     1
  3
ACAD_GROUP
350
D
  3
ACAD_LAYOUT
350
1A
  3
ACAD_MLINESTYLE
350
17
  3
ACAD_PLOTSETTINGS
350
19
  3
ACAD_PLOTSTYLENAME
350
E
  3
ACAD_TABLESTYLE
350
148
  3
ACAD_VISUALSTYLE
350
2A
  0
DICTIONARY
  5
D
102
{ACAD_REACTORS
330
C
102
}
330
C
100
AcDbDictionary
281
     1
  0
DICTIONARY
  5
1A
102
{ACAD_REACTORS
330
C
102
}
330
C
100
AcDbDictionary
281
     1
  3
Layout1
350
1E
  3
Layout2
350
26
  3
Model
350
22
  0
DICTIONARY
  5
17
102
{ACAD_REACTORS
330
C
102
}
330
C
100
AcDbDictionary
281
     1
  3
Standard
350
18
  0
DICTIONARY
  5
19
102
{ACAD_REACTORS
330
C
102
}
330
C
100
AcDbDictionary
281
     1
  0
ACDBDICTIONARYWDFLT
  5
E
102
{ACAD_REACTORS
330
C
102
}
330
C
100
AcDbDictionary
281
     1
  3
Normal
350
F
100
AcDbDictionaryWithDefault
340
F
  0
DICTIONARY
  5
148
102
{ACAD_REACTORS
330
C
102
}
330
C
100
AcDbDictionary
281
     1
  0
DICTIONARY
  5
2A
102
{ACAD_REACTORS
330
C
102
}
330
C
100
AcDbDictionary
281
     1
  3
2dWireframe
350
2F
  3
3D Hidden
350
31
  3
3dWireframe
350
30
  3
Basic
350
32
  3
Brighten
350
36
  3
ColorChange
350
3A
  3
Conceptual
350
34
  3
Dim
350
35
  3
Facepattern
350
39
  3
Flat
350
2B
  3
FlatWithEdges
350
2C
  3
Gouraud
350
2D
  3
GouraudWithEdges
350
2E
  3
Linepattern
350
38
  3
Realistic
350
33
  3
Thicken
350
37
  0
LAYOUT
  5
1E
102
{ACAD_REACTORS
330
1A
102
}
330
1A
100
AcDbPlotSettings
  1

  2
none_device
  4

  6

 40
0.0
 41
0.0
 42
0.0
 43
0.0
 44
0.0
 45
0.0
 46
0.0
 47
0.0
 48
0.0
 49
0.0
140
0.0
141
0.0
142
1.0
143
1.0
 70
   688
 72
     0
 73
     0
 74
     5
  7

 75
    16
147
1.0
148
0.0
149
0.0
100
AcDbLayout
  1
Layout1
 70
     1
 71
     1
 10
0.0
 20
0.0
 11
12.0
 21
9.0
 12
0.0
 22
0.0
 32
0.0
 14
1.00000000000000E+20
 24
1.00000000000000E+20
 34
1.00000000000000E+20
 15
-1.00000000000000E+20
 25
-1.00000000000000E+20
 35
-1.00000000000000E+20
146
0.0
 13
0.0
 23
0.0
 33
0.0
 16
1.0
 26
0.0
 36
0.0
 17
0.0
 27
1.0
 37
0.0
 76
     0
330
1B
  0
LAYOUT
  5
26
102
{ACAD_REACTORS
330
1A
102
}
330
1A
100
AcDbPlotSettings
  1

  2
none_device
  4

  6

 40
0.0
 41
0.0
 42
0.0
 43
0.0
 44
0.0
 45
0.0
 46
0.0
 47
0.0
 48
0.0
 49
0.0
140
0.0
141
0.0
142
1.0
143
1.0
 70
   688
 72
     0
 73
     0
 74
     5
  7

 75
    16
147
1.0
148
0.0
149
0.0
100
AcDbLayout
  1
Layout2
 70
     1
 71
     2
 10
0.0
 20
0.0
 11
0.0
 21
0.0
 12
0.0
 22
0.0
 32
0.0
 14
0.0
 24
0.0
 34
0.0
 15
0.0
 25
0.0
 35
0.0
146
0.0
 13
0.0
 23
0.0
 33
0.0
 16
1.0
 26
0.0
 36
0.0
 17
0.0
 27
1.0
 37
0.0
 76
     0
330
23
  0
LAYOUT
  5
22
102
{ACAD_REACTORS
330
1A
102
}
330
1A
100
AcDbPlotSettings
  1

  2
none_device
  4

  6

 40
0.0
 41
0.0
 42
0.0
 43
0.0
 44
0.0
 45
0.0
 46
0.0
 47
0.0
 48
0.0
 49
0.0
140
0.0
141
0.0
142
1.0
143
1.0
 70
  1712
 72
     0
 73
     0
 74
     0
  7

 75
     0
147
1.0
148
0.0
149
0.0
100
AcDbLayout
  1
Model
 70
     1
 71
     0
 10
0.0
 20
0.0
 11
12.0
 21
9.0
 12
0.0
 22
0.0
 32
0.0
 14
27.2898482254718
 24
25.4408300431894
 34
0.0
 15
367.2898482254718
 25
270.9408300431894
 35
0.0
146
0.0
 13
0.0
 23
0.0
 33
0.0
 16
1.0
 26
0.0
 36
0.0
 17
0.0
 27
1.0
 37
0.0
 76
     0
330
1F
331
29
  0
MLINESTYLE
  5
18
102
{ACAD_REACTORS
330
17
102
}
330
17
100
AcDbMlineStyle
  2
Standard
 70
     0
  3

 62
   256
 51
90.0
 52
90.0
 71
     2
 49
0.5
 62
   256
  6
BYLAYER
 49
-0.5
 62
   256
  6
BYLAYER
  0
ACDBPLACEHOLDER
  5
F
102
{ACAD_REACTORS
330
E
102
}
330
E
  0
VISUALSTYLE
  5
2F
102
{ACAD_REACTORS
330
2A
102
}
330
2A
100
AcDbVisualStyle
  2
2dWireframe
 70
     4
 71
     0
 72
     2
 73
     0
 90
        0
 40
-0.6
 41
-30.0
 62
     5
 63
     7
 74
     1
 91
        4
 64
     7
 65
   257
 75
     1
175
     1
 42
1.0
 92
        0
 66
   257
 43
1.0
 76
     1
 77
     6
 78
     2
 67
     7
 79
     5
170
     0
171
     0
290
     0
174
     0
 93
        1
 44
0.0
173
     0
291
     0
 45
0.0
1001
ACAD
1000
AcDbSavedByObjectVersion
1070
     0
  0
VISUALSTYLE
  5
31
102
{ACAD_REACTORS
330
2A
102
}
330
2A
100
AcDbVisualStyle
  2
3D Hidden
 70
     6
 71
     1
 72
     2
 73
     2
 90
        0
 40
-0.6
 41
-30.0
 62
     5
 63
     7
 74
     2
 91
        2
 64
     7
 65
   257
 75
     2
175
     1
 42
40.0
 92
        0
 66
   257
 43
1.0
 76
     1
 77
     6
 78
     2
 67
     7
 79
     3
170
     0
171
     0
290
     0
174
     0
 93
        1
 44
0.0
173
     0
291
     0
 45
0.0
1001
ACAD
1000
AcDbSavedByObjectVersion
1070
     0
  0
VISUALSTYLE
  5
30
102
{ACAD_REACTORS
330
2A
102
}
330
2A
100
AcDbVisualStyle
  2
3dWireframe
 70
     5
 71
     0
 72
     2
 73
     0
 90
        0
 40
-0.6
 41
-30.0
 62
     5
 63
     7
 74
     1
 91
        4
 64
     7
 65
   257
 75
     1
175
     1
 42
1.0
 92
        0
 66
   257
 43
1.0
 76
     1
 77
     6
 78
     2
 67
     7
 79
     5
170
     0
171
     0
290
     0
174
     0
 93
        1
 44
0.0
173
     0
291
     0
 45
0.0
1001
ACAD
1000
AcDbSavedByObjectVersion
1070
     0
  0
VISUALSTYLE
  5
32
102
{ACAD_REACTORS
330
2A
102
}
330
2A
100
AcDbVisualStyle
  2
Basic
 70
     7
 71
     1
 72
     0
 73
     1
 90
        0
 40
-0.6
 41
-30.0
 62
     5
 63
     7
 74
     0
 91
        4
 64
     7
 65
   257
 75
     1
175
     1
 42
1.0
 92
        8
 66
     7
 43
1.0
 76
     1
 77
     6
 78
     2
 67
     7
 79
     5
170
     0
171
     0
290
     0
174
     0
 93
        1
 44
0.0
173
     0
291
     1
 45
0.0
1001
ACAD
1000
AcDbSavedByObjectVersion
1070
     0
  0
VISUALSTYLE
  5
36
102
{ACAD_REACTORS
330
2A
102
}
330
2A
100
AcDbVisualStyle
  2
Brighten
 70
    12
 71
     2
 72
     2
 73
     0
 90
        0
 40
-0.6
 41
-30.0
 62
     5
 63
     7
 74
     1
 91
        4
 64
     7
 65
   257
 75
     1
175
     1
 42
1.0
 92
        8
 66
     7
 43
1.0
 76
     1
 77
     6
 78
     2
 67
     7
 79
     5
170
     0
171
     0
290
     0
174
     0
 93
        1
 44
50.0
173
     0
291
     1
 45
0.0
1001
ACAD
1000
AcDbSavedByObjectVersion
1070
     0
  0
VISUALSTYLE
  5
3A
102
{ACAD_REACTORS
330
2A
102
}
330
2A
100
AcDbVisualStyle
  2
ColorChange
 70
    16
 71
     2
 72
     2
 73
     3
 90
        0
 40
-0.6
 41
-30.0
 62
     5
 63
     8
 74
     1
 91
        4
 64
     7
 65
   257
 75
     1
175
     1
 42
1.0
 92
        8
 66
     8
 43
1.0
 76
     1
 77
     6
 78
     2
 67
     7
 79
     5
170
     0
171
     0
290
     0
174
     0
 93
        1
 44
0.0
173
     0
291
     1
 45
0.0
1001
ACAD
1000
AcDbSavedByObjectVersion
1070
     0
  0
VISUALSTYLE
  5
34
102
{ACAD_REACTORS
330
2A
102
}
330
2A
100
AcDbVisualStyle
  2
Conceptual
 70
     9
 71
     3
 72
     2
 73
     0
 90
        0
 40
-0.6
 41
-30.0
 62
     5
 63
     7
 74
     2
 91
        2
 64
     7
 65
   257
 75
     1
175
     1
 42
40.0
 92
        8
 66
     7
 43
1.0
 76
     1
 77
     6
 78
     2
 67
     7
 79
     3
170
     0
171
     0
290
     0
174
     0
 93
        1
 44
0.0
173
     0
291
     0
 45
0.0
1001
ACAD
1000
AcDbSavedByObjectVersion
1070
     0
  0
VISUALSTYLE
  5
35
102
{ACAD_REACTORS
330
2A
102
}
330
2A
100
AcDbVisualStyle
  2
Dim
 70
    11
 71
     2
 72
     2
 73
     0
 90
        0
 40
-0.6
 41
-30.0
 62
     5
 63
     7
 74
     1
 91
        4
 64
     7
 65
   257
 75
     1
175
     1
 42
1.0
 92
        8
 66
     7
 43
1.0
 76
     1
 77
     6
 78
     2
 67
     7
 79
     5
170
     0
171
     0
290
     0
174
     0
 93
        1
 44
-50.0
173
     0
291
     1
 45
0.0
1001
ACAD
1000
AcDbSavedByObjectVersion
1070
     0
  0
VISUALSTYLE
  5
39
102
{ACAD_REACTORS
330
2A
102
}
330
2A
100
AcDbVisualStyle
  2
Facepattern
 70
    15
 71
     2
 72
     2
 73
     0
 90
        0
 40
-0.6
 41
-30.0
 62
     5
 63
     7
 74
     1
 91
        4
 64
     7
 65
   257
 75
     1
175
     1
 42
1.0
 92
        8
 66
     7
 43
1.0
 76
     1
 77
     6
 78
     2
 67
     7
 79
     5
170
     0
171
     0
290
     0
174
     0
 93
        1
 44
0.0
173
     0
291
     1
 45
0.0
1001
ACAD
1000
AcDbSavedByObjectVersion
1070
     0
  0
VISUALSTYLE
  5
2B
102
{ACAD_REACTORS
330
2A
102
}
330
2A
100
AcDbVisualStyle
  2
Flat
 70
     0
 71
     2
 72
     1
 73
     1
 90
        2
 40
-0.6
 41
30.0
 62
     5
 63
     7
 74
     0
 91
        4
 64
     7
 65
   257
 75
     1
175
     1
 42
1.0
 92
        8
 66
     7
 43
1.0
 76
     1
 77
     6
 78
     2
 67
     7
 79
     5
170
     0
171
     0
290
     0
174
     0
 93
       13
 44
0.0
173
     0
291
     1
 45
0.0
1001
ACAD
1000
AcDbSavedByObjectVersion
1070
     0
  0
VISUALSTYLE
  5
2C
102
{ACAD_REACTORS
330
2A
102
}
330
2A
100
AcDbVisualStyle
  2
FlatWithEdges
 70
     1
 71
     2
 72
     1
 73
     1
 90
        2
 40
-0.6
 41
30.0
 62
     5
 63
     7
 74
     1
 91
        4
 64
     7
 65
   257
 75
     1
175
     1
 42
1.0
 92
        0
 66
   257
 43
1.0
 76
     1
 77
     6
 78
     2
 67
     7
 79
     5
170
     0
171
     0
290
     0
174
     0
 93
       13
 44
0.0
173
     0
291
     1
 45
0.0
1001
ACAD
1000
AcDbSavedByObjectVersion
1070
     0
  0
VISUALSTYLE
  5
2D
102
{ACAD_REACTORS
330
2A
102
}
330
2A
100
AcDbVisualStyle
  2
Gouraud
 70
     2
 71
     2
 72
     2
 73
     1
 90
        2
 40
-0.6
 41
30.0
 62
     5
 63
     7
 74
     0
 91
        4
 64
     7
 65
   257
 75
     1
175
     1
 42
1.0
 92
        0
 66
     7
 43
1.0
 76
     1
 77
     6
 78
     2
 67
     7
 79
     5
170
     0
171
     0
290
     0
174
     0
 93
       13
 44
0.0
173
     0
291
     1
 45
0.0
1001
ACAD
1000
AcDbSavedByObjectVersion
1070
     0
  0
VISUALSTYLE
  5
2E
102
{ACAD_REACTORS
330
2A
102
}
330
2A
100
AcDbVisualStyle
  2
GouraudWithEdges
 70
     3
 71
     2
 72
     2
 73
     1
 90
        2
 40
-0.6
 41
30.0
 62
     5
 63
     7
 74
     1
 91
        4
 64
     7
 65
   257
 75
     1
175
     1
 42
1.0
 92
        0
 66
   257
 43
1.0
 76
     1
 77
     6
 78
     2
 67
     7
 79
     5
170
     0
171
     0
290
     0
174
     0
 93
       13
 44
0.0
173
     0
291
     1
 45
0.0
1001
ACAD
1000
AcDbSavedByObjectVersion
1070
     0
  0
VISUALSTYLE
  5
38
102
{ACAD_REACTORS
330
2A
102
}
330
2A
100
AcDbVisualStyle
  2
Linepattern
 70
    14
 71
     2
 72
     2
 73
     0
 90
        0
 40
-0.6
 41
-30.0
 62
     5
 63
     7
 74
     1
 91
        4
 64
     7
 65
   257
 75
     7
175
     7
 42
1.0
 92
        8
 66
     7
 43
1.0
 76
     1
 77
     6
 78
     2
 67
     7
 79
     5
170
     0
171
     0
290
     0
174
     0
 93
        1
 44
0.0
173
     0
291
     1
 45
0.0
1001
ACAD
1000
AcDbSavedByObjectVersion
1070
     0
  0
VISUALSTYLE
  5
33
102
{ACAD_REACTORS
330
2A
102
}
330
2A
100
AcDbVisualStyle
  2
Realistic
 70
     8
 71
     2
 72
     2
 73
     0
 90
        0
 40
-0.6
 41
-30.0
 62
     5
 63
     7
 74
     1
 91
        0
 64
     7
 65
   257
 75
     1
175
     1
 42
1.0
 92
        8
 66
     8
 43
1.0
 76
     1
 77
     6
 78
     2
 67
     7
 79
     5
170
     0
171
     0
290
     0
174
     0
 93
       13
 44
0.0
173
     0
291
     0
 45
0.0
1001
ACAD
1000
AcDbSavedByObjectVersion
1070
     0
  0
VISUALSTYLE
  5
37
102
{ACAD_REACTORS
330
2A
102
}
330
2A
100
AcDbVisualStyle
  2
Thicken
 70
    13
 71
     2
 72
     2
 73
     0
 90
        0
 40
-0.6
 41
-30.0
 62
     5
 63
     7
 74
     1
 91
        4
 64
     7
 65
   257
 75
     1
175
     1
 42
1.0
 92
       12
 66
     7
 43
1.0
 76
     1
 77
     6
 78
     2
 67
     7
 79
     5
170
     0
171
     0
290
     0
174
     0
 93
        1
 44
0.0
173
     0
291
     1
 45
0.0
1001
ACAD
1000
AcDbSavedByObjectVersion
1070
     0
  0
ENDSEC
  0
EOF
